<?xml version="1.0" standalone="no"?>
<!DOCTYPE svg PUBLIC "-//W3C//DTD SVG 1.1//EN" "http://www.w3.org/Graphics/SVG/1.1/DTD/svg11.dtd" >
<svg xmlns="http://www.w3.org/2000/svg" xmlns:xlink="http://www.w3.org/1999/xlink" version="1.1">
<metadata>
Created by FontForge 20161003 at Sat Jan 26 12:33:32 2019
 By www-data
Please review the description of this font at http://www.itcfonts.com.
</metadata>
<defs>
<font id="ITCAvantGardeStd-Bold" horiz-adv-x="555" >
  <font-face 
    font-family="ITC Avant Garde Std Md"
    font-weight="700"
    font-stretch="normal"
    units-per-em="1000"
    panose-1="2 0 5 3 5 0 0 2 0 4"
    ascent="740"
    descent="-260"
    x-height="555"
    cap-height="740"
    bbox="-118 -271 1413 1037"
    underline-thickness="50"
    underline-position="-100"
    stemh="155"
    stemv="166"
    unicode-range="U+0020-FB04"
  />
<missing-glyph horiz-adv-x="500" 
d="M12 0v665h475v-665h-475zM88 618l162 -243l161 243h-323zM60 575v-484c0 -1 161 242 161 242zM440 575l-162 -242l162 -243v485zM411 48l-161 242l-162 -242h323z" />
    <glyph glyph-name="f_t" unicode="ft" horiz-adv-x="633" 
d="M621 429h-80v-429h-166v429h-143v-429h-166v429h-62v126h62v15c0 156 131 170 212 170h25v-125h-19c-15 0 -52 -5 -52 -52v-8h143v185h166v-185h80v-126z" />
    <glyph glyph-name="f_f_t" unicode="fft" horiz-adv-x="942" 
d="M930 429h-80v-429h-166v429h-143v-429h-166v429h-143v-429h-166v429h-62v126h62v15c0 156 131 170 212 170h24v-125h-19c-14 0 -51 -5 -51 -52v-8h143v15c0 156 131 170 212 170h25v-125h-19c-15 0 -52 -5 -52 -52v-8h143v185h166v-185h80v-126z" />
    <glyph glyph-name="f_f" unicode="ff" horiz-adv-x="624" 
d="M612 615h-19c-15 0 -52 -5 -52 -52v-8h70v-126h-70v-429h-166v429h-143v-429h-166v429h-62v126h62v15c0 156 131 170 212 170h24v-125h-19c-14 0 -51 -5 -51 -52v-8h143v15c0 156 131 170 212 170h25v-125z" />
    <glyph glyph-name="f_i" unicode="fi" horiz-adv-x="601" 
d="M541 614h-166v126h166v-126zM541 0h-166v429h-143v-429h-166v429h-62v126h62v29c0 135 96 170 212 170h25v-125c-60 0 -71 -12 -71 -74h309v-555z" />
    <glyph glyph-name="f_l" unicode="fl" horiz-adv-x="601" 
d="M541 0h-166v429h-143v-429h-166v429h-62v126h62v29c0 135 96 170 212 170h25v-125c-60 0 -71 -12 -71 -74h143v185h166v-740z" />
    <glyph glyph-name="f_f_i" unicode="ffi" horiz-adv-x="910" 
d="M850 615h-166v125h166v-125zM850 0h-166v429h-143v-429h-166v429h-143v-429h-166v429h-62v126h62v15c0 156 131 170 212 170h24v-125h-19c-14 0 -51 -5 -51 -52v-8h143v15c0 156 131 170 212 170h25v-125h-19c-15 0 -52 -5 -52 -52v-8h309v-555z" />
    <glyph glyph-name="f_f_l" unicode="ffl" horiz-adv-x="910" 
d="M850 0h-166v429h-143v-429h-166v429h-143v-429h-166v429h-62v126h62v15c0 156 131 170 212 170h24v-125h-19c-14 0 -51 -5 -51 -52v-8h143v15c0 156 131 170 212 170h25v-125h-19c-15 0 -52 -5 -52 -52v-8h143v185h166v-740z" />
    <glyph glyph-name=".notdef" horiz-adv-x="500" 
d="M12 0v665h475v-665h-475zM88 618l162 -243l161 243h-323zM60 575v-484c0 -1 161 242 161 242zM440 575l-162 -242l162 -243v485zM411 48l-161 242l-162 -242h323z" />
    <glyph glyph-name="space" unicode=" " horiz-adv-x="309" 
 />
    <glyph glyph-name="exclam" unicode="!" horiz-adv-x="333" 
d="M252 244h-171v496h171v-496zM252 0h-171v170h171v-170z" />
    <glyph glyph-name="quotedbl" unicode="&#x22;" horiz-adv-x="463" 
d="M429 740l-34 -297h-107l-33 297h174zM208 740l-34 -297h-107l-33 297h174z" />
    <glyph glyph-name="numbersign" unicode="#" horiz-adv-x="618" 
d="M588 514l-15 -111h-112l-10 -73h111l-15 -111h-112l-24 -174h-113l24 174h-78l-24 -174h-114l24 174h-99l15 111h100l10 73h-100l15 111h100l22 158h114l-22 -158h78l22 158h114l-22 -158h111zM348 403h-78l-10 -73h78z" />
    <glyph glyph-name="dollar" unicode="$" horiz-adv-x="420" 
d="M538 232c0 -98 -66 -173 -157 -203v-105h-135v101c-51 11 -88 26 -122 68c-30 37 -44 84 -44 131h171c2 -35 19 -71 59 -71c32 0 57 27 57 59c0 123 -281 67 -281 296c0 104 62 175 160 202v101h135v-101c90 -21 140 -95 139 -185v-5h-155c-2 34 -17 63 -55 63
c-32 0 -54 -25 -54 -56c0 -62 89 -85 135 -103c84 -33 147 -97 147 -192z" />
    <glyph glyph-name="percent" unicode="%" horiz-adv-x="858" 
d="M822 166c0 -99 -81 -181 -180 -181c-100 0 -181 81 -181 181s81 181 181 181s180 -82 180 -181zM638 740l-307 -740h-115l306 740h116zM396 574c0 -99 -81 -180 -180 -180s-180 81 -180 180s80 181 180 181s180 -81 180 -181zM711 166c0 38 -30 70 -69 70
s-70 -31 -70 -70c0 -38 32 -70 70 -70s69 32 69 70zM285 575c0 38 -31 69 -69 69c-39 0 -69 -31 -69 -70c0 -37 32 -69 69 -69c38 0 69 32 69 70z" />
    <glyph glyph-name="ampersand" unicode="&#x26;" horiz-adv-x="758" 
d="M729 435l-57 -137c-15 -35 -33 -68 -56 -98l101 -104l-113 -111l-87 90c-65 -56 -133 -90 -221 -90c-123 0 -247 82 -247 215c0 98 63 153 137 203c-44 45 -70 97 -70 160c0 113 96 191 205 191c105 0 194 -74 194 -182c0 -77 -42 -128 -102 -170l87 -88l54 121h175z
M365 573c0 26 -15 47 -43 47s-45 -22 -45 -49c0 -32 21 -58 42 -80c23 23 46 47 46 82zM406 184l-118 119c-28 -22 -57 -47 -57 -86c0 -48 41 -73 85 -73c38 0 65 11 90 40z" />
    <glyph glyph-name="quoteright" unicode="&#x2019;" horiz-adv-x="314" 
d="M244 530c0 -63 -33 -121 -102 -121h-72v89c30 0 79 -6 79 38v34h-79v170h174v-210z" />
    <glyph glyph-name="parenleft" unicode="(" horiz-adv-x="473" 
d="M430 -264c-220 83 -365 272 -365 509c0 238 146 426 365 509v-174c-115 -64 -180 -209 -180 -337c0 -127 65 -271 180 -334v-173z" />
    <glyph glyph-name="parenright" unicode=")" horiz-adv-x="473" 
d="M408 244c0 -237 -145 -426 -365 -508v173c115 64 180 209 180 337c0 127 -65 271 -180 334v174c219 -83 365 -272 365 -510z" />
    <glyph glyph-name="asterisk" unicode="*" horiz-adv-x="670" 
d="M555 539l-131 -41l83 -110l-93 -70l-82 115l-79 -115l-93 70l86 110l-131 41l36 109l128 -48l-3 140h119l-7 -140l129 48z" />
    <glyph glyph-name="plus" unicode="+" horiz-adv-x="600" 
d="M552 173h-172v-173h-160v173h-172v160h172v173h160v-173h172v-160z" />
    <glyph glyph-name="comma" unicode="," horiz-adv-x="314" 
d="M244 -40c0 -62 -34 -121 -102 -121h-71v89c30 0 78 -6 78 38v34h-78v170h173v-210z" />
    <glyph glyph-name="hyphen" unicode="-" horiz-adv-x="281" 
d="M281 207h-281v163h281v-163z" />
    <glyph glyph-name="period" unicode="." horiz-adv-x="314" 
d="M244 0h-173v170h173v-170z" />
    <glyph glyph-name="slash" unicode="/" horiz-adv-x="593" 
d="M521 740l-264 -840h-185l265 840h184z" />
    <glyph glyph-name="zero" unicode="0" horiz-adv-x="618" 
d="M585 267c0 -111 -47 -206 -151 -254c-38 -18 -80 -27 -122 -27c-39 0 -77 8 -113 23c-110 46 -166 140 -166 258v206c0 119 55 214 167 259c36 14 74 22 112 22s78 -9 113 -24c108 -47 160 -141 160 -257v-206zM396 262v216c0 58 -19 110 -87 110c-65 0 -87 -54 -87 -110
v-216c0 -57 22 -110 87 -110c68 0 87 52 87 110z" />
    <glyph glyph-name="one" unicode="1" horiz-adv-x="618" 
d="M414 0h-189v581h-121v159h310v-740z" />
    <glyph glyph-name="two" unicode="2" horiz-adv-x="618" 
d="M573 0h-522v147c83 54 159 106 226 180c43 47 102 123 102 189c0 42 -27 72 -70 72c-68 0 -82 -62 -85 -117h-180c2 63 9 116 44 170c50 77 138 113 228 113c96 0 190 -40 233 -130c12 -27 19 -56 19 -85c0 -160 -135 -283 -246 -380h251v-159z" />
    <glyph glyph-name="three" unicode="3" horiz-adv-x="618" 
d="M579 218c0 -143 -143 -232 -274 -232c-83 0 -183 32 -231 104c-27 41 -36 83 -41 131h191c10 -45 39 -69 86 -69c51 0 80 33 80 83c0 88 -107 75 -166 75v139c54 0 125 -2 125 74c0 32 -15 65 -52 65c-42 0 -57 -26 -58 -64h-186c2 147 114 230 253 230
c117 0 232 -75 232 -202c0 -74 -35 -121 -98 -155c85 -29 139 -88 139 -179z" />
    <glyph glyph-name="four" unicode="4" horiz-adv-x="618" 
d="M604 130h-82v-130h-181v130h-326v138l331 472h176v-462h82v-148zM353 278v232h-2l-146 -232h148z" />
    <glyph glyph-name="five" unicode="5" horiz-adv-x="618" 
d="M592 254c0 -36 -8 -72 -22 -104c-47 -109 -146 -165 -262 -165c-135 0 -256 75 -282 213h190c21 -29 51 -46 87 -46c54 0 100 44 100 98c0 58 -45 97 -101 97c-46 0 -79 -22 -97 -64l-153 38l64 419h409v-159h-264l-16 -101c33 18 63 22 100 22c104 0 187 -53 227 -149
c13 -31 20 -65 20 -99z" />
    <glyph glyph-name="six" unicode="6" horiz-adv-x="618" 
d="M600 268c0 -163 -125 -282 -287 -282c-168 0 -292 115 -292 286c0 72 28 139 68 198l184 270h219l-163 -223l2 -2c11 4 24 4 36 4c140 0 233 -116 233 -251zM411 252c0 59 -46 101 -104 101c-56 0 -100 -42 -100 -98c0 -57 42 -103 100 -103c57 0 104 42 104 100z" />
    <glyph glyph-name="seven" unicode="7" horiz-adv-x="618" 
d="M547 595l-260 -595h-208l273 581h-287v159h482v-145z" />
    <glyph glyph-name="eight" unicode="8" horiz-adv-x="618" 
d="M579 220c0 -144 -136 -234 -269 -234s-271 90 -271 234c0 82 39 154 116 187c-47 36 -72 79 -72 139c0 127 105 208 226 208c119 0 226 -80 226 -206c0 -62 -25 -104 -72 -141c78 -33 116 -105 116 -187zM377 535c0 36 -31 66 -67 66c-38 0 -69 -30 -69 -68
c0 -39 28 -68 67 -68s69 32 69 70zM390 236c0 46 -34 85 -81 85c-48 0 -81 -37 -81 -84c0 -48 35 -85 84 -85c45 0 78 41 78 84z" />
    <glyph glyph-name="nine" unicode="9" horiz-adv-x="618" 
d="M602 476c0 -77 -28 -142 -71 -205l-184 -271h-219l163 224l-2 2c-11 -4 -25 -4 -36 -4c-34 0 -68 9 -98 24c-89 44 -135 130 -135 227c0 164 125 281 287 281c87 0 175 -31 233 -97c45 -51 62 -115 62 -181zM413 486c0 58 -44 102 -102 102c-56 0 -102 -42 -102 -99
c0 -58 44 -101 102 -101c56 0 102 40 102 98z" />
    <glyph glyph-name="colon" unicode=":" horiz-adv-x="314" 
d="M244 385h-173v170h173v-170zM244 0h-173v170h173v-170z" />
    <glyph glyph-name="semicolon" unicode=";" horiz-adv-x="314" 
d="M244 385h-173v170h173v-170zM244 -40c0 -62 -34 -121 -102 -121h-71v89c30 0 78 -6 78 38v34h-78v170h173v-210z" />
    <glyph glyph-name="less" unicode="&#x3c;" horiz-adv-x="600" 
d="M554 -38l-508 214v154l508 214v-175l-340 -115v-2l340 -115v-175z" />
    <glyph glyph-name="equal" unicode="=" horiz-adv-x="600" 
d="M552 305h-504v160h504v-160zM552 41h-504v160h504v-160z" />
    <glyph glyph-name="greater" unicode="&#x3e;" horiz-adv-x="600" 
d="M554 176l-508 -214v175l340 115v2l-340 115v175l508 -214v-154z" />
    <glyph glyph-name="question" unicode="?" horiz-adv-x="592" 
d="M551 542c0 -162 -181 -205 -190 -307h-174c2 138 172 191 172 286c0 38 -19 62 -58 62c-61 0 -68 -47 -69 -96h-183c-1 6 -1 12 -1 18c0 150 117 249 263 249c89 0 173 -39 216 -120c15 -28 24 -60 24 -92zM361 0h-174v170h174v-170z" />
    <glyph glyph-name="at" unicode="@" horiz-adv-x="748" 
d="M743 428c0 -37 -6 -73 -18 -108c-26 -76 -90 -161 -178 -161c-49 0 -82 26 -98 72c-29 -48 -62 -72 -119 -72c-96 0 -154 88 -154 177c0 107 80 224 195 224c41 0 84 -18 99 -59h2l8 47h104l-37 -218c-3 -16 -7 -35 -7 -51c0 -18 10 -26 27 -26c39 0 66 71 73 100
c6 24 9 49 9 74c0 146 -116 238 -256 238c-167 0 -294 -137 -294 -302c0 -37 7 -75 20 -110c44 -123 145 -178 273 -178c72 0 144 12 211 37l21 -92c-73 -26 -154 -36 -232 -36c-167 0 -305 77 -367 235c-18 46 -28 96 -28 146c0 220 172 391 392 391
c191 0 354 -129 354 -328zM450 385c0 41 -20 81 -66 81c-63 0 -101 -70 -101 -126c0 -46 25 -87 75 -87c67 0 92 77 92 132z" />
    <glyph glyph-name="A" unicode="A" horiz-adv-x="758" 
d="M749 0h-205l-36 107h-257l-39 -107h-203l297 740h149zM458 257l-76 253h-1h-2l-76 -253h155z" />
    <glyph glyph-name="B" unicode="B" horiz-adv-x="647" 
d="M612 225c0 -59 -22 -122 -68 -161c-76 -65 -146 -64 -242 -64h-235v740h228c89 0 173 -1 237 -72c31 -34 44 -76 44 -122c0 -63 -31 -118 -86 -149c81 -28 122 -88 122 -172zM395 518c0 47 -35 56 -74 56h-73v-115h72c41 0 75 12 75 59zM431 237c0 53 -44 64 -88 64h-95
v-135h94c47 0 89 16 89 71z" />
    <glyph glyph-name="C" unicode="C" horiz-adv-x="832" 
d="M801 277c-43 -175 -195 -291 -374 -291c-215 0 -390 168 -390 385s173 383 388 383c134 0 252 -62 326 -174c24 -36 43 -78 50 -121h-198c-29 76 -96 129 -179 129c-120 0 -198 -102 -198 -216s78 -220 199 -220c83 0 145 52 178 125h198z" />
    <glyph glyph-name="D" unicode="D" horiz-adv-x="742" 
d="M697 372c0 -243 -139 -372 -381 -372h-259v740h245c134 0 243 -22 327 -138c48 -67 68 -148 68 -230zM508 369c0 118 -54 205 -180 205h-82v-408h81c129 0 181 83 181 203z" />
    <glyph glyph-name="E" unicode="E" horiz-adv-x="528" 
d="M478 0h-411v740h411v-166h-230v-115h223v-166h-223v-127h230v-166z" />
    <glyph glyph-name="F" unicode="F" horiz-adv-x="506" 
d="M471 574h-223v-126h215v-166h-215v-282h-181v740h404v-166z" />
    <glyph glyph-name="G" unicode="G" horiz-adv-x="854" 
d="M823 382c0 -227 -168 -397 -395 -397c-218 0 -393 169 -393 388c0 222 179 381 396 381c160 0 325 -104 370 -262h-212c-34 61 -93 96 -163 96c-121 0 -202 -98 -202 -215c0 -121 77 -222 203 -222c81 0 154 37 177 119h-221v151h439c1 -13 1 -26 1 -39z" />
    <glyph glyph-name="H" unicode="H" horiz-adv-x="754" 
d="M687 0h-189v296h-242v-296h-189v740h189v-278h242v278h189v-740z" />
    <glyph glyph-name="I" unicode="I" horiz-adv-x="323" 
d="M256 0h-189v740h189v-740z" />
    <glyph glyph-name="J" unicode="J" horiz-adv-x="578" 
d="M510 293c0 -71 0 -152 -46 -210c-50 -62 -130 -97 -209 -97c-34 0 -69 6 -100 18c-105 38 -149 126 -149 234h201c2 -37 9 -86 57 -86c54 0 57 53 57 94v494h189v-447z" />
    <glyph glyph-name="K" unicode="K" horiz-adv-x="707" 
d="M701 0h-221l-202 320h-2v-320h-189v740h189v-333h2l209 333h198l-245 -369z" />
    <glyph glyph-name="L" unicode="L" horiz-adv-x="487" 
d="M480 0h-408v740h189v-574h219v-166z" />
    <glyph glyph-name="M" unicode="M" horiz-adv-x="915" 
d="M848 0h-174l6 554l-2 2l-158 -556h-125l-158 556l-2 -2l6 -554h-174v740h243l147 -487h2l145 487h244v-740z" />
    <glyph glyph-name="N" unicode="N" horiz-adv-x="759" 
d="M691 0h-164l-282 450l-2 -1l5 -449h-181v740h163l286 -465l2 2l-8 463h181v-740z" />
    <glyph glyph-name="O" unicode="O" horiz-adv-x="851" 
d="M816 370c0 -219 -175 -384 -392 -384c-209 0 -389 162 -389 375c0 55 9 107 29 158c11 29 29 58 48 83c76 100 187 152 313 152c216 0 391 -166 391 -384zM627 369c0 115 -80 219 -201 219s-202 -100 -202 -216c0 -118 81 -220 204 -220c119 0 199 104 199 217z" />
    <glyph glyph-name="P" unicode="P" horiz-adv-x="636" 
d="M624 490c0 -68 -26 -148 -78 -194c-64 -56 -133 -64 -216 -64h-82v-232h-181v740h242c76 0 167 -3 228 -54c58 -49 87 -120 87 -196zM443 487c0 77 -63 87 -125 87h-70v-176h77c62 0 118 14 118 89z" />
    <glyph glyph-name="Q" unicode="Q" horiz-adv-x="866" 
d="M855 -13c-16 -1 -31 -2 -47 -2c-58 0 -132 14 -174 58c-66 -41 -131 -58 -208 -58c-212 0 -391 166 -391 381c0 217 172 388 389 388c211 0 395 -162 395 -378c0 -81 -16 -147 -61 -214c24 -22 65 -30 97 -25v-150zM630 379c0 119 -85 209 -205 209
c-112 0 -182 -82 -200 -187c36 15 65 25 105 25c111 0 208 -74 275 -156c19 33 25 71 25 109zM510 170c-54 65 -109 118 -200 118c-24 0 -43 -4 -66 -12c30 -71 101 -125 180 -125c30 0 60 5 86 19z" />
    <glyph glyph-name="R" unicode="R" horiz-adv-x="653" 
d="M637 0h-216l-171 239h-2v-239h-181v740h234c78 0 164 -2 228 -53c61 -49 91 -125 91 -202c0 -114 -67 -214 -184 -233zM439 474c0 73 -57 100 -122 100h-69v-206h67c71 0 124 30 124 106z" />
    <glyph glyph-name="S" unicode="S" horiz-adv-x="573" 
d="M550 213c0 -155 -112 -227 -258 -227c-149 0 -267 77 -267 235v24h188c0 -48 22 -101 77 -101c39 0 72 31 72 71c0 48 -40 64 -79 81c-22 10 -44 19 -66 28c-96 40 -181 96 -181 212c0 138 133 218 259 218c72 0 153 -27 200 -84c38 -47 47 -88 49 -146h-187
c-6 41 -20 72 -68 72c-33 0 -65 -23 -65 -58c0 -11 1 -22 7 -31c18 -30 115 -68 146 -82c98 -45 173 -96 173 -212z" />
    <glyph glyph-name="T" unicode="T" horiz-adv-x="499" 
d="M490 574h-145v-574h-189v574h-146v166h480v-166z" />
    <glyph glyph-name="U" unicode="U" horiz-adv-x="698" 
d="M633 293c0 -88 -10 -163 -74 -227c-56 -57 -128 -80 -207 -80c-77 0 -159 22 -213 79c-67 71 -74 134 -74 228v447h189v-447c0 -67 11 -141 96 -141c89 0 94 71 94 141v447h189v-447z" />
    <glyph glyph-name="V" unicode="V" horiz-adv-x="722" 
d="M706 740l-248 -740h-195l-247 740h194l149 -519h2l150 519h195z" />
    <glyph glyph-name="W" unicode="W" horiz-adv-x="981" 
d="M964 740l-196 -740h-166l-111 479h-2l-111 -479h-171l-191 740h192l99 -481h2l109 481h145l107 -483h2l101 483h191z" />
    <glyph glyph-name="X" unicode="X" horiz-adv-x="759" 
d="M748 0h-214l-160 262l-152 -262h-211l259 394l-229 346h214l127 -211l123 211h213l-226 -350z" />
    <glyph glyph-name="Y" unicode="Y" horiz-adv-x="647" 
d="M638 740l-219 -471v-269h-189v269l-221 471h205l110 -297l111 297h203z" />
    <glyph glyph-name="Z" unicode="Z" horiz-adv-x="499" 
d="M483 0h-467v124l255 450h-255v166h467v-153l-236 -421h236v-166z" />
    <glyph glyph-name="bracketleft" unicode="[" horiz-adv-x="473" 
d="M401 -264c-69 4 -129 20 -186 60c-89 63 -111 152 -111 255v388c0 104 22 190 111 255c58 42 117 56 186 60v-174c-88 -4 -109 -56 -109 -134v-402c0 -78 21 -130 109 -134v-174z" />
    <glyph glyph-name="backslash" unicode="\" horiz-adv-x="593" 
d="M521 -100h-185l-264 840h184z" />
    <glyph glyph-name="bracketright" unicode="]" horiz-adv-x="473" 
d="M369 51c0 -104 -22 -190 -111 -255c-58 -42 -117 -56 -186 -60v174c88 4 109 56 109 134v402c0 78 -21 130 -109 134v174c69 -4 129 -20 186 -60c89 -63 111 -152 111 -255v-388z" />
    <glyph glyph-name="asciicircum" unicode="^" horiz-adv-x="600" 
d="M557 375h-180l-76 223h-2l-77 -223h-179l174 365h166z" />
    <glyph glyph-name="underscore" unicode="_" horiz-adv-x="500" 
d="M500 -125h-500v50h500v-50z" />
    <glyph glyph-name="quoteleft" unicode="&#x2018;" horiz-adv-x="314" 
d="M244 409h-174v210c0 62 34 121 102 121h72v-89c-30 0 -78 6 -78 -38v-34h78v-170z" />
    <glyph glyph-name="a" unicode="a" horiz-adv-x="704" 
d="M643 0h-166v60h-2c-30 -57 -102 -79 -162 -79c-171 0 -279 132 -279 297c0 162 112 296 279 296c61 0 129 -23 162 -78h2v59h166v-555zM477 278c0 81 -59 141 -140 141s-137 -64 -137 -143c0 -77 60 -140 138 -140c81 0 139 62 139 142z" />
    <glyph glyph-name="b" unicode="b" horiz-adv-x="693" 
d="M660 281c0 -167 -107 -300 -280 -300c-57 0 -130 24 -159 78h-2v-59h-159v740h166v-229c43 46 99 63 161 63c40 0 80 -10 117 -27c107 -50 156 -151 156 -266zM494 278c0 76 -58 141 -136 141c-79 0 -138 -62 -138 -140c0 -79 54 -143 135 -143c80 0 139 63 139 142z" />
    <glyph glyph-name="c" unicode="c" horiz-adv-x="652" 
d="M621 211c-32 -136 -151 -229 -291 -229c-166 0 -297 131 -297 297c0 164 128 295 293 295c142 0 265 -92 294 -233h-168c-24 52 -67 78 -124 78c-80 0 -128 -66 -128 -141c0 -78 51 -141 132 -141c55 0 95 26 120 74h169z" />
    <glyph glyph-name="d" unicode="d" horiz-adv-x="698" 
d="M638 0h-158v60h-2c-35 -59 -101 -78 -166 -78c-170 0 -278 133 -278 297c0 161 108 295 275 295c64 0 118 -20 163 -66v232h166v-740zM481 280c0 80 -60 139 -140 139s-141 -58 -141 -139s56 -143 139 -143s142 61 142 143z" />
    <glyph glyph-name="e" unicode="e" horiz-adv-x="646" 
d="M614 271c0 -15 -1 -29 -4 -44h-416c10 -66 65 -105 130 -105c45 0 74 18 101 52h170c-48 -111 -146 -192 -271 -192c-162 0 -294 132 -294 294c0 161 128 298 291 298c170 0 293 -136 293 -303zM448 339c-13 60 -66 95 -126 95s-113 -35 -126 -95h252z" />
    <glyph glyph-name="f" unicode="f" horiz-adv-x="314" 
d="M302 429h-70v-429h-166v429h-62v126h62v29c0 135 96 170 212 170h24v-125c-60 0 -70 -12 -70 -74h70v-126z" />
    <glyph glyph-name="g" unicode="g" horiz-adv-x="693" 
d="M635 67c0 -62 -1 -128 -33 -183c-55 -93 -180 -131 -281 -131c-94 0 -188 29 -243 109c-18 26 -30 55 -34 86h192c18 -40 56 -55 97 -55c91 0 135 63 135 151v17h-2c-29 -54 -93 -79 -152 -79c-166 0 -280 130 -280 292c0 163 111 299 280 299c57 0 121 -19 153 -70h2v52
h166v-488zM469 275c0 80 -53 143 -135 143c-77 0 -134 -63 -134 -138c0 -77 53 -143 133 -143s136 58 136 138z" />
    <glyph glyph-name="h" unicode="h" horiz-adv-x="632" 
d="M574 0h-166v302c0 60 -17 116 -89 116s-93 -47 -93 -110v-308h-166v740h166v-236h2c29 52 87 70 143 70c54 0 115 -19 151 -61c53 -61 52 -127 52 -203v-310z" />
    <glyph glyph-name="i" unicode="i" horiz-adv-x="286" 
d="M226 614h-166v126h166v-126zM226 0h-166v555h166v-555z" />
    <glyph glyph-name="j" unicode="j" horiz-adv-x="321" 
d="M253 614h-166v126h166v-126zM253 12c0 -153 -44 -216 -206 -216h-41v126h22c56 0 59 40 59 84v549h166v-543z" />
    <glyph glyph-name="k" unicode="k" horiz-adv-x="591" 
d="M585 555l-209 -244l203 -311h-188l-157 267h-2v-267h-166v740h166v-386h2l154 201h197z" />
    <glyph glyph-name="l" unicode="l" horiz-adv-x="286" 
d="M226 0h-166v740h166v-740z" />
    <glyph glyph-name="m" unicode="m" horiz-adv-x="969" 
d="M912 0h-166v295c0 61 -8 123 -85 123c-74 0 -92 -52 -92 -115v-303h-166v302c0 57 -13 116 -83 116c-77 0 -94 -58 -94 -123v-295h-166v555h155v-59h2c32 57 90 78 153 78c72 0 126 -36 160 -99c40 63 101 99 176 99c55 0 107 -16 146 -56c63 -64 60 -130 60 -215v-303z
" />
    <glyph glyph-name="n" unicode="n" horiz-adv-x="632" 
d="M574 0h-166v303c0 62 -12 115 -87 115c-77 0 -95 -50 -95 -116v-302h-166v555h155v-59h2c35 57 84 78 151 78c47 0 106 -18 142 -48c53 -44 64 -114 64 -179v-347z" />
    <glyph glyph-name="o" unicode="o" horiz-adv-x="666" 
d="M632 278c0 -170 -129 -295 -299 -295s-299 125 -299 295s129 295 299 295s299 -125 299 -295zM466 278c0 75 -56 140 -133 140s-133 -65 -133 -140s56 -140 133 -140s133 65 133 140z" />
    <glyph glyph-name="p" unicode="p" horiz-adv-x="697" 
d="M663 272c0 -155 -108 -291 -270 -291c-66 0 -122 20 -167 69v-235h-166v740h156v-61h1h2c43 54 105 80 173 80c172 0 271 -141 271 -302zM497 277c0 79 -59 142 -139 142s-139 -63 -139 -142c0 -78 60 -141 139 -141s139 63 139 141z" />
    <glyph glyph-name="q" unicode="q" horiz-adv-x="698" 
d="M638 -185h-166v242h-2c-40 -56 -102 -75 -168 -75c-160 0 -268 130 -268 285c0 166 104 307 279 307c63 0 131 -23 164 -80h2v61h159v-740zM478 277c0 80 -59 142 -140 142c-83 0 -138 -65 -138 -145c0 -77 63 -137 140 -137s138 63 138 140z" />
    <glyph glyph-name="r" unicode="r" horiz-adv-x="363" 
d="M356 407c-73 -2 -131 -16 -131 -102v-305h-166v555h156v-59h2c29 57 75 78 139 78v-167z" />
    <glyph glyph-name="s" unicode="s" horiz-adv-x="499" 
d="M476 170c0 -125 -113 -189 -226 -189c-116 0 -213 62 -226 184h165c5 -34 30 -51 63 -51c25 0 58 14 58 43c0 40 -45 52 -75 64c-24 8 -48 16 -72 25c-66 24 -132 67 -132 145c0 116 108 183 215 183c111 0 202 -57 213 -175h-163c-1 31 -23 42 -52 42
c-22 0 -47 -12 -47 -37c0 -87 279 -38 279 -234z" />
    <glyph glyph-name="t" unicode="t" horiz-adv-x="351" 
d="M339 429h-80v-429h-166v429h-82v126h82v185h166v-185h80v-126z" />
    <glyph glyph-name="u" unicode="u" horiz-adv-x="634" 
d="M574 0h-157v59h-2c-29 -60 -82 -77 -144 -77c-61 0 -123 21 -163 70c-45 56 -50 102 -50 171v332h166v-307c0 -63 14 -111 89 -111c69 0 95 49 95 113v305h166v-555z" />
    <glyph glyph-name="v" unicode="v" horiz-adv-x="592" 
d="M575 555l-200 -555h-159l-199 555h172l106 -346h2l106 346h172z" />
    <glyph glyph-name="w" unicode="w" horiz-adv-x="850" 
d="M843 555l-170 -555h-154l-93 359h-2l-93 -359h-154l-170 555h172l83 -345h2l91 345h140l92 -345h2l83 345h171z" />
    <glyph glyph-name="x" unicode="x" horiz-adv-x="630" 
d="M628 0h-203l-111 172l-113 -172h-200l211 297l-187 258h199l90 -146l89 146h197l-187 -258z" />
    <glyph glyph-name="y" unicode="y" horiz-adv-x="574" 
d="M573 555l-278 -740h-176l88 213l-206 527h177l111 -322h2l106 322h176z" />
    <glyph glyph-name="z" unicode="z" horiz-adv-x="444" 
d="M428 0h-413v114l234 315h-234v126h413v-126l-217 -303h217v-126z" />
    <glyph glyph-name="braceleft" unicode="{" horiz-adv-x="554" 
d="M483 -264h-128c-85 0 -153 48 -153 138v212c0 49 -58 61 -97 61v172c42 0 97 16 97 67v216c0 90 68 138 153 138h128v-126c-60 0 -113 12 -113 -65v-209c0 -74 -41 -100 -108 -105v-4c54 -3 108 -31 108 -92v-212c0 -77 53 -65 113 -65v-126z" />
    <glyph glyph-name="bar" unicode="|" 
d="M369 -100h-183v840h183v-840z" />
    <glyph glyph-name="braceright" unicode="}" horiz-adv-x="554" 
d="M449 147c-39 0 -97 -12 -97 -61v-212c0 -90 -68 -138 -153 -138h-128v126c60 0 113 -12 113 65v212c0 61 54 89 108 92v4c-67 5 -108 31 -108 105v209c0 77 -53 65 -113 65v126h128c85 0 153 -48 153 -138v-216c0 -51 55 -67 97 -67v-172z" />
    <glyph glyph-name="asciitilde" unicode="~" horiz-adv-x="600" 
d="M533 219c-33 -44 -66 -88 -127 -88c-80 0 -125 68 -217 68c-43 0 -68 -35 -86 -69l-36 156c28 51 65 89 127 89c74 0 160 -68 213 -68c41 0 68 40 90 70z" />
    <glyph glyph-name="exclamdown" unicode="&#xa1;" horiz-adv-x="333" 
d="M252 385h-171v170h171v-170zM252 -185h-171v496h171v-496z" />
    <glyph glyph-name="cent" unicode="&#xa2;" horiz-adv-x="618" 
d="M556 325c-17 -92 -86 -168 -178 -189v-105h-137v105c-106 36 -179 124 -179 237s71 208 179 242v105h131v-101c89 -24 175 -103 184 -199h-172c-14 25 -42 40 -71 40c-47 0 -86 -38 -86 -85c0 -48 39 -84 86 -84c29 0 50 11 67 34h176z" />
    <glyph glyph-name="sterling" unicode="&#xa3;" horiz-adv-x="618" 
d="M618 188c0 -25 -7 -51 -18 -73c-38 -81 -115 -115 -201 -115h-355v148h49c39 0 91 2 91 54c0 33 -23 57 -42 82h-128v133h48c-19 28 -28 60 -28 94c0 35 9 69 24 100c46 94 140 144 242 144c90 0 176 -40 224 -118c27 -43 33 -79 38 -129h-174c-5 50 -33 81 -85 81
c-45 0 -80 -39 -80 -83c0 -37 11 -61 34 -89h156v-133h-77c17 -20 33 -41 33 -69c0 -30 -18 -48 -39 -67h41c45 0 82 16 82 68c0 13 -3 24 -7 36h161c7 -23 11 -40 11 -64z" />
    <glyph glyph-name="fraction" unicode="&#x2044;" horiz-adv-x="211" 
d="M329 740l-311 -740h-136l310 740h137z" />
    <glyph glyph-name="yen" unicode="&#xa5;" horiz-adv-x="618" 
d="M618 740l-117 -217h97v-138h-170l-26 -49v-30h196v-139h-197v-167h-186v167h-196v139h196v27l-26 52h-168v138h99l-119 217h200l109 -237l111 237h197z" />
    <glyph glyph-name="florin" unicode="&#x192;" horiz-adv-x="618" 
d="M547 815l-22 -133c-64 0 -82 -34 -91 -91h73l-23 -125h-72l-57 -326c-13 -72 -24 -141 -71 -200c-50 -62 -127 -92 -205 -92c-18 0 -37 1 -54 6l26 148c6 -1 12 -2 18 -2c83 0 101 46 113 118l60 348h-72l21 125h73l6 32c22 116 116 195 235 195c14 0 28 0 42 -3z" />
    <glyph glyph-name="section" unicode="&#xa7;" horiz-adv-x="670" 
d="M630 246c0 -72 -36 -112 -86 -158c33 -45 51 -83 51 -141c0 -141 -119 -218 -250 -218c-32 0 -64 5 -95 14c-109 32 -176 107 -185 222h164c10 -63 55 -85 113 -85c39 0 90 18 90 65c0 43 -56 65 -88 80l-171 79c-82 38 -133 82 -133 180c0 68 42 122 95 161
c-22 34 -31 71 -31 111c0 135 118 198 239 198c123 0 236 -75 241 -206h-163c-12 42 -46 58 -87 58c-34 0 -70 -12 -70 -53c0 -32 34 -48 59 -59l182 -82c75 -34 125 -77 125 -166zM483 218c0 35 -41 54 -68 66l-185 83c-23 -11 -39 -29 -39 -55c0 -35 25 -50 53 -63
l202 -93c22 14 37 36 37 62z" />
    <glyph glyph-name="currency" unicode="&#xa4;" horiz-adv-x="614" 
d="M546 177c-26 -27 -52 -54 -78 -80c-24 23 -47 46 -71 69c-36 -22 -76 -30 -113 -30c-36 0 -77 8 -114 30c-24 -23 -47 -46 -70 -69c-27 26 -53 53 -79 80c24 21 47 44 71 66c-25 44 -31 84 -31 111s6 68 31 111c-24 23 -47 45 -71 67c26 27 52 54 79 80
c23 -23 46 -46 70 -69c38 22 78 30 114 30s77 -8 113 -30c24 23 47 46 71 69c26 -26 52 -53 78 -80c-24 -22 -47 -44 -71 -67c26 -43 32 -84 32 -111s-7 -67 -32 -111c24 -22 47 -45 71 -66zM395 355c0 62 -55 108 -111 108c-62 0 -111 -48 -111 -108s50 -109 111 -109
s111 49 111 109z" />
    <glyph glyph-name="quotesingle" unicode="'" horiz-adv-x="242" 
d="M208 740l-34 -297h-107l-33 297h174z" />
    <glyph glyph-name="quotedblleft" unicode="&#x201c;" 
d="M488 409h-174v210c0 62 34 121 102 121h72v-90c-29 0 -79 6 -79 -37v-34h79v-170zM241 409h-174v210c0 62 34 121 102 121h72v-90c-29 0 -79 6 -79 -37v-34h79v-170z" />
    <glyph glyph-name="guillemotleft" unicode="&#xab;" horiz-adv-x="422" 
d="M375 103l-129 127v114l129 130v-140l-51 -45l51 -47v-139zM176 103l-129 127v114l129 130v-140l-51 -45l51 -47v-139z" />
    <glyph glyph-name="guilsinglleft" unicode="&#x2039;" horiz-adv-x="222" 
d="M175 103l-128 127v114l128 130v-140l-51 -45l51 -47v-139z" />
    <glyph glyph-name="guilsinglright" unicode="&#x203a;" horiz-adv-x="222" 
d="M175 230l-128 -127v140l51 45l-51 47v139l128 -131v-113z" />
    <glyph glyph-name="endash" unicode="&#x2013;" horiz-adv-x="500" 
d="M465 207h-430v163h430v-163z" />
    <glyph glyph-name="dagger" unicode="&#x2020;" horiz-adv-x="670" 
d="M572 423h-154v-667h-165v667h-155v140h155v177h165v-177h154v-140z" />
    <glyph glyph-name="daggerdbl" unicode="&#x2021;" horiz-adv-x="670" 
d="M572 -13h-154v-231h-165v231h-155v140h155v326h-155v140h155v147h165v-147h154v-140h-154v-326h154v-140z" />
    <glyph glyph-name="periodcentered" unicode="&#xb7;" horiz-adv-x="314" 
d="M244 168h-173v170h173v-170z" />
    <glyph glyph-name="paragraph" unicode="&#xb6;" horiz-adv-x="701" 
d="M607 622h-49v-725h-128v725h-97v-725h-128v458c-119 0 -212 59 -212 189c0 157 122 196 254 196h360v-118z" />
    <glyph glyph-name="bullet" unicode="&#x2022;" horiz-adv-x="739" 
d="M522 377c0 -84 -67 -155 -152 -155s-153 71 -153 155c0 85 68 155 154 155c85 0 151 -72 151 -155z" />
    <glyph glyph-name="quotesinglbase" unicode="&#x201a;" horiz-adv-x="314" 
d="M244 -40c0 -62 -34 -121 -102 -121h-72v89c30 0 79 -6 79 38v34h-79v170h174v-210z" />
    <glyph glyph-name="quotedblbase" unicode="&#x201e;" 
d="M488 -40c0 -62 -34 -121 -102 -121h-72v89c30 0 78 -6 78 38v34h-78v170h174v-210zM241 -40c0 -63 -34 -121 -103 -121h-71v89c30 0 78 -6 78 38v34h-78v170h174v-210z" />
    <glyph glyph-name="quotedblright" unicode="&#x201d;" 
d="M488 530c0 -63 -33 -121 -102 -121h-72v89c30 0 78 -6 78 38v34h-78v170h174v-210zM241 530c0 -63 -33 -121 -102 -121h-72v89c30 0 79 -6 79 38v34h-79v170h174v-210z" />
    <glyph glyph-name="guillemotright" unicode="&#xbb;" horiz-adv-x="422" 
d="M375 230l-129 -127v140l52 45l-52 47v139l129 -131v-113zM176 230l-129 -127v140l51 45l-51 47v139l129 -131v-113z" />
    <glyph glyph-name="ellipsis" unicode="&#x2026;" horiz-adv-x="1000" 
d="M920 0h-173v170h173v-170zM587 0h-173v170h173v-170zM254 0h-173v170h173v-170z" />
    <glyph glyph-name="perthousand" unicode="&#x2030;" horiz-adv-x="1258" 
d="M1222 166c0 -99 -81 -181 -180 -181c-100 0 -181 81 -181 181s81 181 181 181s180 -82 180 -181zM822 166c0 -99 -81 -181 -180 -181c-100 0 -181 81 -181 181s81 181 181 181s180 -82 180 -181zM638 740l-307 -740h-115l306 740h116zM396 574c0 -99 -81 -180 -180 -180
s-180 81 -180 180s80 181 180 181s180 -81 180 -181zM1111 166c0 38 -30 70 -69 70s-70 -31 -70 -70c0 -38 32 -70 70 -70s69 32 69 70zM711 166c0 38 -30 70 -69 70s-70 -31 -70 -70c0 -38 32 -70 70 -70s69 32 69 70zM285 575c0 38 -31 69 -69 69c-39 0 -69 -31 -69 -70
c0 -37 32 -69 69 -69c38 0 69 32 69 70z" />
    <glyph glyph-name="questiondown" unicode="&#xbf;" horiz-adv-x="592" 
d="M405 385h-174v170h174v-170zM543 49c0 -150 -117 -249 -263 -249c-89 0 -172 39 -215 120c-15 28 -24 60 -24 92c0 162 181 207 190 307h174c-2 -137 -172 -191 -172 -286c0 -37 17 -62 57 -62c61 0 68 47 69 96h183c1 -6 1 -12 1 -18z" />
    <glyph glyph-name="grave" unicode="`" 
d="M404 721l-46 -97l-247 108l51 117z" />
    <glyph glyph-name="acute" unicode="&#xb4;" 
d="M444 723l-246 -109l-47 98l240 129z" />
    <glyph glyph-name="circumflex" unicode="&#x2c6;" 
d="M484 630h-160l-46 58l-46 -58h-162l156 166h108z" />
    <glyph glyph-name="tilde" unicode="&#x2dc;" 
d="M480 678c-35 -22 -71 -37 -113 -37c-50 0 -112 26 -160 26c-27 0 -47 -9 -72 -19l-60 88c33 19 71 35 110 35c55 0 107 -25 162 -25c29 0 47 6 73 17z" />
    <glyph glyph-name="macron" unicode="&#xaf;" 
d="M457 648h-359v126h359v-126z" />
    <glyph glyph-name="breve" unicode="&#x2d8;" 
d="M483 778c-7 -110 -112 -144 -206 -144c-96 0 -198 34 -206 144h113c26 -32 59 -35 98 -35c32 0 69 6 88 35h113z" />
    <glyph glyph-name="dotaccent" unicode="&#x2d9;" 
d="M357 634h-159v151h159v-151z" />
    <glyph glyph-name="dieresis" unicode="&#xa8;" 
d="M473 634h-159v151h159v-151zM240 634h-159v151h159v-151z" />
    <glyph glyph-name="ring" unicode="&#x2da;" 
d="M403 696c0 -69 -57 -126 -126 -126s-126 57 -126 126s57 126 126 126s126 -57 126 -126zM321 697c0 24 -20 44 -44 44c-25 0 -44 -20 -44 -45c0 -24 20 -43 44 -43s44 20 44 44z" />
    <glyph glyph-name="cedilla" unicode="&#xb8;" 
d="M388 -141c0 -64 -50 -104 -112 -104c-58 0 -101 35 -109 94h76c6 -17 13 -28 33 -28c23 0 36 16 36 38c0 20 -14 34 -34 34c-12 0 -20 -6 -27 -15l-65 35l42 87h83l-29 -53c7 2 14 3 21 3c52 0 85 -41 85 -91z" />
    <glyph glyph-name="hungarumlaut" unicode="&#x2dd;" 
d="M493 775l-86 -175l-106 47l75 185zM294 775l-86 -175l-106 47l74 185z" />
    <glyph glyph-name="ogonek" unicode="&#x2db;" 
d="M380 -190c-30 -10 -55 -16 -86 -16c-60 0 -119 30 -119 97c0 51 45 83 83 109h84c-25 -14 -57 -36 -57 -68c0 -25 23 -48 48 -48c16 0 32 6 47 12v-86z" />
    <glyph glyph-name="caron" unicode="&#x2c7;" 
d="M484 789l-155 -166h-108l-151 166h161l46 -58l46 58h161z" />
    <glyph glyph-name="emdash" unicode="&#x2014;" horiz-adv-x="1000" 
d="M965 207h-930v163h930v-163z" />
    <glyph glyph-name="AE" unicode="&#xc6;" horiz-adv-x="975" 
d="M925 0h-411v124h-215l-80 -124h-229l514 740h421v-166h-228v-115h221v-166h-221v-127h228v-166zM514 270v201h-2l-136 -201h138z" />
    <glyph glyph-name="ordfeminine" unicode="&#xaa;" horiz-adv-x="403" 
d="M351 458h-99v29h-2c-14 -29 -42 -39 -73 -39c-85 0 -140 72 -140 153c0 83 55 153 142 153c31 0 57 -11 72 -39h1v29h99v-286zM253 601c0 34 -25 59 -59 59s-58 -26 -58 -59s25 -59 58 -59c34 0 59 25 59 59z" />
    <glyph glyph-name="Lslash" unicode="&#x141;" horiz-adv-x="487" 
d="M480 0h-408v205l-65 -47v188l65 47v347h189v-211l109 78v-188l-109 -78v-175h219v-166z" />
    <glyph glyph-name="Oslash" unicode="&#xd8;" horiz-adv-x="851" 
d="M816 370c0 -219 -176 -384 -392 -384c-60 0 -112 11 -167 35l-63 -84l-118 87l62 83c-69 74 -103 162 -103 263c0 220 173 384 391 384c57 0 115 -11 167 -35l64 87l118 -86l-64 -86c68 -73 105 -163 105 -264zM627 369c0 40 -10 78 -29 114l-237 -320
c22 -8 43 -11 66 -11c120 0 200 103 200 217zM488 578c-20 7 -41 10 -62 10c-120 0 -202 -99 -202 -215c0 -38 9 -81 27 -114z" />
    <glyph glyph-name="OE" unicode="&#x152;" horiz-adv-x="1085" 
d="M1035 0h-412v49c-62 -44 -128 -63 -204 -63c-213 0 -384 169 -384 382c0 220 169 386 389 386c77 0 137 -17 199 -63v49h412v-166h-230v-115h222v-166h-222v-127h230v-166zM622 373c0 117 -77 215 -199 215c-124 0 -199 -103 -199 -220c0 -113 79 -216 198 -216
c125 0 200 103 200 221z" />
    <glyph glyph-name="ordmasculine" unicode="&#xba;" horiz-adv-x="385" 
d="M347 601c0 -89 -67 -153 -155 -153s-155 64 -155 153s67 153 155 153s155 -64 155 -153zM248 601c0 31 -24 59 -56 59s-56 -28 -56 -59s24 -59 56 -59s56 28 56 59z" />
    <glyph glyph-name="ae" unicode="&#xe6;" horiz-adv-x="1091" 
d="M1059 267c0 -14 0 -28 -4 -41h-417c10 -66 62 -104 127 -104c48 0 77 18 108 53h167c-48 -110 -130 -193 -256 -193c-61 0 -120 20 -155 73h-2v-55h-151v55h-2c-28 -52 -104 -73 -158 -73c-159 0 -282 140 -282 295c0 165 117 297 286 297c51 0 130 -23 154 -73h2v54h151
v-53h2c38 52 92 72 156 72c39 0 78 -10 114 -27c107 -53 160 -163 160 -280zM895 336c-17 62 -59 97 -124 97c-60 0 -119 -35 -129 -97h253zM476 276c0 84 -56 143 -141 143c-57 0 -100 -31 -122 -83c-8 -17 -13 -37 -13 -55c0 -82 58 -144 141 -144c78 0 135 62 135 139z
" />
    <glyph glyph-name="dotlessi" unicode="&#x131;" horiz-adv-x="286" 
d="M226 0h-166v555h166v-555z" />
    <glyph glyph-name="lslash" unicode="&#x142;" horiz-adv-x="342" 
d="M317 375l-65 -42v-333h-166v226l-61 -39v172l61 39v342h166v-235l65 42v-172z" />
    <glyph glyph-name="oslash" unicode="&#xf8;" horiz-adv-x="666" 
d="M632 278c0 -170 -128 -296 -298 -296c-41 0 -83 7 -121 23l-65 -88l-105 80l61 82c-47 53 -70 127 -70 197c0 172 128 297 300 297c40 0 84 -7 121 -23l61 83l107 -77l-62 -83c46 -55 71 -124 71 -195zM466 278c0 22 -4 38 -12 58l-146 -196c8 -2 17 -3 25 -3
c79 0 133 64 133 141zM361 415c-9 2 -18 3 -27 3c-78 0 -134 -64 -134 -140c0 -21 4 -43 13 -62z" />
    <glyph glyph-name="oe" unicode="&#x153;" horiz-adv-x="1076" 
d="M1045 272c0 -16 -2 -31 -5 -46h-416c7 -66 60 -104 124 -104c48 0 77 16 108 51h170c-48 -114 -148 -192 -274 -192c-85 0 -158 31 -208 100c-56 -71 -125 -100 -216 -100c-165 0 -294 131 -294 295c0 173 130 298 302 298c74 0 164 -34 208 -95c44 61 134 95 208 95
c168 0 293 -137 293 -302zM879 337c-14 60 -64 96 -125 96c-59 0 -114 -36 -125 -96h250zM467 278c0 74 -57 141 -133 141c-79 0 -134 -66 -134 -142c0 -75 58 -141 135 -141s132 68 132 142z" />
    <glyph glyph-name="germandbls" unicode="&#xdf;" horiz-adv-x="694" 
d="M660 228c0 -141 -121 -246 -258 -246c-79 0 -125 27 -178 82v-64h-166v427c0 88 2 166 64 235c55 61 137 97 219 97c118 0 235 -83 235 -209c0 -58 -24 -98 -71 -129c88 -22 155 -101 155 -193zM494 227c0 65 -52 93 -112 93h-90v125h34c46 0 84 27 84 76
c0 52 -38 83 -88 83c-74 0 -98 -62 -98 -126v-269h93c12 -45 35 -72 86 -72s91 39 91 90z" />
    <glyph glyph-name="logicalnot" unicode="&#xac;" horiz-adv-x="600" 
d="M557 108h-160v177h-364v160h524v-337z" />
    <glyph glyph-name="mu" unicode="&#xb5;" horiz-adv-x="634" 
d="M581 0h-158v69h-1h-2c-14 -44 -54 -79 -102 -79c-39 0 -79 18 -98 54h-2v-234h-166v745h166v-274c0 -65 18 -144 98 -144s99 79 99 144v274h166v-555z" />
    <glyph glyph-name="trademark" unicode="&#x2122;" horiz-adv-x="944" 
d="M879 296h-117l2 301h-2l-87 -301h-84l-90 301l-2 -2l4 -299h-117v444h159l87 -277h2l86 277h159v-444zM328 634h-90v-338h-126v338h-91v106h307v-106z" />
    <glyph glyph-name="Eth" unicode="&#xd0;" horiz-adv-x="772" 
d="M737 372c0 -222 -134 -372 -361 -372h-279v296h-67v166h67v278h249c134 0 239 -23 323 -138c49 -68 68 -147 68 -230zM548 369c0 118 -54 205 -180 205h-82v-112h108v-166h-108v-130h81c129 0 181 83 181 203z" />
    <glyph glyph-name="onehalf" unicode="&#xbd;" horiz-adv-x="867" 
d="M221 296h-123v338h-78v106h201v-444zM592 740l-311 -740h-136l310 740h137zM819 0h-341v97c47 30 134 82 176 142c15 21 24 43 24 66s-9 41 -35 41c-37 0 -46 -38 -47 -68h-123c1 39 6 73 29 106c34 48 93 69 150 69c77 0 165 -43 165 -131c0 -49 -25 -94 -60 -133
c-28 -31 -62 -59 -91 -81v-2h153v-106z" />
    <glyph glyph-name="plusminus" unicode="&#xb1;" horiz-adv-x="600" 
d="M552 260h-172v-130h-160v130h-172v160h172v136h160v-136h172v-160zM552 -82h-504v160h504v-160z" />
    <glyph glyph-name="Thorn" unicode="&#xde;" horiz-adv-x="636" 
d="M624 394c0 -67 -26 -149 -78 -194c-65 -56 -133 -64 -216 -64h-82v-136h-181v740h181v-97c26 0 53 1 79 1c73 0 152 -5 210 -54s87 -120 87 -196zM443 391c0 77 -63 87 -125 87h-70v-176h77c62 0 118 14 118 89z" />
    <glyph glyph-name="onequarter" unicode="&#xbc;" horiz-adv-x="831" 
d="M597 740l-311 -740h-136l310 740h137zM221 296h-123v338h-78v106h201v-444zM803 77h-52v-77h-123v77h-209v86l214 281h118v-273h52v-94zM630 171v121h-2l-82 -121h84z" />
    <glyph glyph-name="divide" unicode="&#xf7;" horiz-adv-x="600" 
d="M378 403h-157v160h157v-160zM552 173h-504v160h504v-160zM378 -57h-157v160h157v-160z" />
    <glyph glyph-name="brokenbar" unicode="&#xa6;" 
d="M369 404h-183v336h183v-336zM369 -100h-183v336h183v-336z" />
    <glyph glyph-name="degree" unicode="&#xb0;" horiz-adv-x="400" 
d="M343 569c0 -80 -63 -143 -143 -143s-143 63 -143 143s63 143 143 143s143 -63 143 -143zM259 569c0 32 -27 61 -59 61s-59 -29 -59 -61s26 -61 59 -61s59 29 59 61z" />
    <glyph glyph-name="thorn" unicode="&#xfe;" horiz-adv-x="695" 
d="M663 272c0 -156 -109 -291 -271 -291c-67 0 -122 20 -167 69v-235h-166v925h166v-234c48 48 96 67 165 67c172 0 273 -139 273 -301zM497 277c0 79 -60 141 -140 141s-140 -62 -140 -141s61 -141 140 -141s140 62 140 141z" />
    <glyph glyph-name="threequarters" unicode="&#xbe;" horiz-adv-x="948" 
d="M379 428c0 -91 -99 -141 -179 -141c-52 0 -118 18 -150 62c-19 26 -25 52 -28 84h129c7 -27 21 -38 50 -38c28 0 48 13 48 43c0 34 -35 39 -67 39c-14 0 -28 -1 -37 -1v90h18c30 0 66 3 66 42c0 20 -12 33 -32 33c-25 0 -35 -12 -36 -35h-126c1 96 78 143 166 143
c72 0 152 -42 152 -123c0 -40 -22 -73 -57 -92c47 -15 83 -55 83 -106zM719 740l-311 -740h-136l310 740h137zM920 77h-52v-77h-123v77h-209v86l214 281h118v-273h52v-94zM747 171v121h-2l-82 -121h84z" />
    <glyph glyph-name="registered" unicode="&#xae;" horiz-adv-x="800" 
d="M783 370c0 -211 -171 -384 -382 -384s-383 173 -383 384c0 213 173 384 385 384c210 0 380 -175 380 -384zM700 370c0 166 -130 307 -298 307c-170 0 -301 -139 -301 -307c0 -166 132 -307 300 -307c169 0 299 140 299 307zM578 161h-103c-9 18 -11 78 -14 102
c-6 46 -29 62 -76 62h-42v-164h-106v426h180c77 0 156 -31 156 -120c0 -49 -25 -83 -69 -103c88 -37 48 -132 74 -203zM467 459c0 44 -29 55 -67 55h-57v-120h55c44 0 69 19 69 65z" />
    <glyph glyph-name="minus" unicode="&#x2212;" horiz-adv-x="600" 
d="M552 173h-504v160h504v-160z" />
    <glyph glyph-name="eth" unicode="&#xf0;" horiz-adv-x="666" 
d="M632 302c0 -175 -118 -319 -299 -319c-166 0 -299 125 -299 293c0 151 103 285 262 285c48 0 87 -12 121 -47l2 2c-21 37 -62 70 -97 93l-150 -45l-93 60l140 43c-32 15 -65 28 -99 36l160 53c35 -9 69 -22 101 -39l129 39l83 -64l-121 -37c110 -90 160 -212 160 -353z
M466 279c0 74 -50 141 -128 141c-79 0 -138 -63 -138 -141s54 -141 135 -141c80 0 131 64 131 141z" />
    <glyph glyph-name="multiply" unicode="&#xd7;" horiz-adv-x="600" 
d="M544 373l-131 -130l129 -130l-113 -113l-129 129l-131 -129l-113 113l130 130l-130 130l113 113l130 -130l131 131z" />
    <glyph glyph-name="copyright" unicode="&#xa9;" horiz-adv-x="800" 
d="M783 370c0 -211 -171 -384 -382 -384s-383 173 -383 384c0 213 172 384 385 384c211 0 380 -175 380 -384zM700 370c0 166 -130 307 -298 307c-170 0 -301 -139 -301 -307c0 -166 132 -307 300 -307c169 0 299 140 299 307zM599 329c-9 -111 -86 -179 -197 -179
c-132 0 -210 96 -210 223c0 126 83 223 213 223c94 0 183 -61 190 -160h-105c-12 44 -38 68 -84 68c-77 0 -107 -64 -107 -132s31 -130 107 -130c51 0 78 40 87 87h106z" />
    <glyph glyph-name="Aacute" unicode="&#xc1;" horiz-adv-x="758" 
d="M749 0h-205l-36 107h-257l-39 -107h-203l297 740h149zM458 257l-76 253h-1h-2l-76 -253h155zM546 885l-246 -109l-47 98l240 129z" />
    <glyph glyph-name="Acircumflex" unicode="&#xc2;" horiz-adv-x="758" 
d="M749 0h-205l-36 107h-257l-39 -107h-203l297 740h149zM458 257l-76 253h-1h-2l-76 -253h155zM586 805h-160l-46 58l-46 -58h-162l156 166h108z" />
    <glyph glyph-name="Adieresis" unicode="&#xc4;" horiz-adv-x="758" 
d="M749 0h-205l-36 107h-257l-39 -107h-203l297 740h149zM458 257l-76 253h-1h-2l-76 -253h155zM575 815h-159v151h159v-151zM342 815h-159v151h159v-151z" />
    <glyph glyph-name="Agrave" unicode="&#xc0;" horiz-adv-x="758" 
d="M749 0h-205l-36 107h-257l-39 -107h-203l297 740h149zM458 257l-76 253h-1h-2l-76 -253h155zM506 873l-46 -97l-247 108l51 117z" />
    <glyph glyph-name="Aring" unicode="&#xc5;" horiz-adv-x="758" 
d="M749 0h-205l-36 107h-257l-39 -107h-203l297 740h149zM458 257l-76 253h-1h-2l-76 -253h155zM505 891c0 -69 -57 -126 -126 -126s-126 57 -126 126s57 126 126 126s126 -57 126 -126zM423 892c0 24 -20 44 -44 44c-25 0 -44 -20 -44 -45c0 -24 20 -43 44 -43s44 20 44 44
z" />
    <glyph glyph-name="Atilde" unicode="&#xc3;" horiz-adv-x="758" 
d="M749 0h-205l-36 107h-257l-39 -107h-203l297 740h149zM458 257l-76 253h-1h-2l-76 -253h155zM582 849c-35 -22 -71 -37 -113 -37c-50 0 -112 26 -160 26c-27 0 -47 -9 -72 -19l-60 88c33 19 71 35 110 35c55 0 107 -25 162 -25c29 0 47 6 73 17z" />
    <glyph glyph-name="Ccedilla" unicode="&#xc7;" horiz-adv-x="832" 
d="M801 277c-42 -168 -184 -283 -357 -290l-22 -40c7 2 14 3 21 3c50 0 85 -43 85 -91c0 -64 -50 -104 -112 -104c-58 0 -101 35 -109 94h76c4 -17 15 -28 33 -28c23 0 36 16 36 38c0 20 -14 34 -34 34c-11 0 -21 -6 -27 -15l-65 35l38 78c-189 28 -327 190 -327 380
c0 217 173 383 388 383c138 0 260 -66 332 -184c21 -34 37 -72 44 -111h-198c-29 76 -96 129 -179 129c-120 0 -198 -102 -198 -216s78 -220 199 -220c84 0 145 51 178 125h198z" />
    <glyph glyph-name="Eacute" unicode="&#xc9;" horiz-adv-x="528" 
d="M478 0h-411v740h411v-166h-230v-115h223v-166h-223v-127h230v-166zM431 885l-246 -109l-47 98l240 129z" />
    <glyph glyph-name="Ecircumflex" unicode="&#xca;" horiz-adv-x="528" 
d="M478 0h-411v740h411v-166h-230v-115h223v-166h-223v-127h230v-166zM471 805h-160l-46 58l-46 -58h-162l156 166h108z" />
    <glyph glyph-name="Edieresis" unicode="&#xcb;" horiz-adv-x="528" 
d="M478 0h-411v740h411v-166h-230v-115h223v-166h-223v-127h230v-166zM460 815h-159v151h159v-151zM227 815h-159v151h159v-151z" />
    <glyph glyph-name="Egrave" unicode="&#xc8;" horiz-adv-x="528" 
d="M478 0h-411v740h411v-166h-230v-115h223v-166h-223v-127h230v-166zM391 873l-46 -97l-247 108l51 117z" />
    <glyph glyph-name="Iacute" unicode="&#xcd;" horiz-adv-x="323" 
d="M256 0h-189v740h189v-740zM353 885l-246 -109l-47 98l240 129z" />
    <glyph glyph-name="Icircumflex" unicode="&#xce;" horiz-adv-x="323" 
d="M256 0h-189v740h189v-740zM368 805h-160l-46 58l-46 -58h-162l156 166h108z" />
    <glyph glyph-name="Idieresis" unicode="&#xcf;" horiz-adv-x="323" 
d="M256 0h-189v740h189v-740zM357 815h-159v151h159v-151zM124 815h-159v151h159v-151z" />
    <glyph glyph-name="Igrave" unicode="&#xcc;" horiz-adv-x="323" 
d="M256 0h-189v740h189v-740zM263 873l-46 -97l-247 108l51 117z" />
    <glyph glyph-name="Ntilde" unicode="&#xd1;" horiz-adv-x="759" 
d="M691 0h-164l-282 450l-2 -1l5 -449h-181v740h163l286 -465l2 2l-8 463h181v-740zM582 849c-35 -22 -71 -37 -113 -37c-50 0 -112 26 -160 26c-27 0 -47 -9 -72 -19l-60 88c33 19 71 35 110 35c55 0 107 -25 162 -25c29 0 47 6 73 17z" />
    <glyph glyph-name="Oacute" unicode="&#xd3;" horiz-adv-x="851" 
d="M816 370c0 -219 -175 -384 -392 -384c-209 0 -389 162 -389 375c0 55 9 107 29 158c11 29 29 58 48 83c76 100 187 152 313 152c216 0 391 -166 391 -384zM627 369c0 115 -80 219 -201 219s-202 -100 -202 -216c0 -118 81 -220 204 -220c119 0 199 104 199 217zM592 885
l-246 -109l-47 98l240 129z" />
    <glyph glyph-name="Ocircumflex" unicode="&#xd4;" horiz-adv-x="851" 
d="M816 370c0 -219 -175 -384 -392 -384c-209 0 -389 162 -389 375c0 55 9 107 29 158c11 29 29 58 48 83c76 100 187 152 313 152c216 0 391 -166 391 -384zM627 369c0 115 -80 219 -201 219s-202 -100 -202 -216c0 -118 81 -220 204 -220c119 0 199 104 199 217zM632 805
h-160l-46 58l-46 -58h-162l156 166h108z" />
    <glyph glyph-name="Odieresis" unicode="&#xd6;" horiz-adv-x="851" 
d="M816 370c0 -219 -175 -384 -392 -384c-209 0 -389 162 -389 375c0 55 9 107 29 158c11 29 29 58 48 83c76 100 187 152 313 152c216 0 391 -166 391 -384zM627 369c0 115 -80 219 -201 219s-202 -100 -202 -216c0 -118 81 -220 204 -220c119 0 199 104 199 217zM621 815
h-159v151h159v-151zM388 815h-159v151h159v-151z" />
    <glyph glyph-name="Ograve" unicode="&#xd2;" horiz-adv-x="851" 
d="M816 370c0 -219 -175 -384 -392 -384c-209 0 -389 162 -389 375c0 55 9 107 29 158c11 29 29 58 48 83c76 100 187 152 313 152c216 0 391 -166 391 -384zM627 369c0 115 -80 219 -201 219s-202 -100 -202 -216c0 -118 81 -220 204 -220c119 0 199 104 199 217zM552 873
l-46 -97l-247 108l51 117z" />
    <glyph glyph-name="Otilde" unicode="&#xd5;" horiz-adv-x="851" 
d="M816 370c0 -219 -175 -384 -392 -384c-209 0 -389 162 -389 375c0 55 9 107 29 158c11 29 29 58 48 83c76 100 187 152 313 152c216 0 391 -166 391 -384zM627 369c0 115 -80 219 -201 219s-202 -100 -202 -216c0 -118 81 -220 204 -220c119 0 199 104 199 217zM628 849
c-35 -22 -71 -37 -113 -37c-50 0 -112 26 -160 26c-27 0 -47 -9 -72 -19l-60 88c33 19 71 35 110 35c55 0 107 -25 162 -25c29 0 47 6 73 17z" />
    <glyph glyph-name="Scaron" unicode="&#x160;" horiz-adv-x="573" 
d="M550 213c0 -155 -112 -227 -258 -227c-149 0 -267 77 -267 235v24h188c0 -48 22 -101 77 -101c39 0 72 31 72 71c0 48 -40 64 -79 81c-22 10 -44 19 -66 28c-96 40 -181 96 -181 212c0 138 133 218 259 218c72 0 153 -27 200 -84c38 -47 47 -88 49 -146h-187
c-6 41 -20 72 -68 72c-33 0 -65 -23 -65 -58c0 -11 1 -22 7 -31c18 -30 115 -68 146 -82c98 -45 173 -96 173 -212zM493 974l-155 -166h-108l-151 166h161l46 -58l46 58h161z" />
    <glyph glyph-name="Uacute" unicode="&#xda;" horiz-adv-x="698" 
d="M633 293c0 -88 -10 -163 -74 -227c-56 -57 -128 -80 -207 -80c-77 0 -159 22 -213 79c-67 71 -74 134 -74 228v447h189v-447c0 -67 11 -141 96 -141c89 0 94 71 94 141v447h189v-447zM551 885l-246 -109l-47 98l240 129z" />
    <glyph glyph-name="Ucircumflex" unicode="&#xdb;" horiz-adv-x="698" 
d="M633 293c0 -88 -10 -163 -74 -227c-56 -57 -128 -80 -207 -80c-77 0 -159 22 -213 79c-67 71 -74 134 -74 228v447h189v-447c0 -67 11 -141 96 -141c89 0 94 71 94 141v447h189v-447zM556 805h-160l-46 58l-46 -58h-162l156 166h108z" />
    <glyph glyph-name="Udieresis" unicode="&#xdc;" horiz-adv-x="698" 
d="M633 293c0 -88 -10 -163 -74 -227c-56 -57 -128 -80 -207 -80c-77 0 -159 22 -213 79c-67 71 -74 134 -74 228v447h189v-447c0 -67 11 -141 96 -141c89 0 94 71 94 141v447h189v-447zM545 815h-159v151h159v-151zM312 815h-159v151h159v-151z" />
    <glyph glyph-name="Ugrave" unicode="&#xd9;" horiz-adv-x="698" 
d="M633 293c0 -88 -10 -163 -74 -227c-56 -57 -128 -80 -207 -80c-77 0 -159 22 -213 79c-67 71 -74 134 -74 228v447h189v-447c0 -67 11 -141 96 -141c89 0 94 71 94 141v447h189v-447zM441 873l-46 -97l-247 108l51 117z" />
    <glyph glyph-name="Yacute" unicode="&#xdd;" horiz-adv-x="647" 
d="M638 740l-219 -471v-269h-189v269l-221 471h205l110 -297l111 297h203zM525 885l-246 -109l-47 98l240 129z" />
    <glyph glyph-name="Ydieresis" unicode="&#x178;" horiz-adv-x="647" 
d="M638 740l-219 -471v-269h-189v269l-221 471h205l110 -297l111 297h203zM519 815h-159v151h159v-151zM286 815h-159v151h159v-151z" />
    <glyph glyph-name="Zcaron" unicode="&#x17d;" horiz-adv-x="499" 
d="M483 0h-467v124l255 450h-255v166h467v-153l-236 -421h236v-166zM471 974l-155 -166h-108l-151 166h161l46 -58l46 58h161z" />
    <glyph glyph-name="aacute" unicode="&#xe1;" horiz-adv-x="704" 
d="M643 0h-166v60h-2c-30 -57 -102 -79 -162 -79c-171 0 -279 132 -279 297c0 162 112 296 279 296c61 0 129 -23 162 -78h2v59h166v-555zM477 278c0 81 -59 141 -140 141s-137 -64 -137 -143c0 -77 60 -140 138 -140c81 0 139 62 139 142zM519 730l-246 -109l-47 98
l240 129z" />
    <glyph glyph-name="acircumflex" unicode="&#xe2;" horiz-adv-x="704" 
d="M643 0h-166v60h-2c-30 -57 -102 -79 -162 -79c-171 0 -279 132 -279 297c0 162 112 296 279 296c61 0 129 -23 162 -78h2v59h166v-555zM477 278c0 81 -59 141 -140 141s-137 -64 -137 -143c0 -77 60 -140 138 -140c81 0 139 62 139 142zM559 640h-160l-46 58l-46 -58
h-162l156 166h108z" />
    <glyph glyph-name="adieresis" unicode="&#xe4;" horiz-adv-x="704" 
d="M643 0h-166v60h-2c-30 -57 -102 -79 -162 -79c-171 0 -279 132 -279 297c0 162 112 296 279 296c61 0 129 -23 162 -78h2v59h166v-555zM477 278c0 81 -59 141 -140 141s-137 -64 -137 -143c0 -77 60 -140 138 -140c81 0 139 62 139 142zM548 644h-159v151h159v-151z
M315 644h-159v151h159v-151z" />
    <glyph glyph-name="agrave" unicode="&#xe0;" horiz-adv-x="704" 
d="M643 0h-166v60h-2c-30 -57 -102 -79 -162 -79c-171 0 -279 132 -279 297c0 162 112 296 279 296c61 0 129 -23 162 -78h2v59h166v-555zM477 278c0 81 -59 141 -140 141s-137 -64 -137 -143c0 -77 60 -140 138 -140c81 0 139 62 139 142zM479 711l-46 -97l-247 108l51 117
z" />
    <glyph glyph-name="aring" unicode="&#xe5;" horiz-adv-x="704" 
d="M643 0h-166v60h-2c-30 -57 -102 -79 -162 -79c-171 0 -279 132 -279 297c0 162 112 296 279 296c61 0 129 -23 162 -78h2v59h166v-555zM477 278c0 81 -59 141 -140 141s-137 -64 -137 -143c0 -77 60 -140 138 -140c81 0 139 62 139 142zM478 726
c0 -69 -57 -126 -126 -126s-126 57 -126 126s57 126 126 126s126 -57 126 -126zM396 727c0 24 -20 44 -44 44c-25 0 -44 -20 -44 -45c0 -24 20 -43 44 -43s44 20 44 44z" />
    <glyph glyph-name="atilde" unicode="&#xe3;" horiz-adv-x="704" 
d="M643 0h-166v60h-2c-30 -57 -102 -79 -162 -79c-171 0 -279 132 -279 297c0 162 112 296 279 296c61 0 129 -23 162 -78h2v59h166v-555zM477 278c0 81 -59 141 -140 141s-137 -64 -137 -143c0 -77 60 -140 138 -140c81 0 139 62 139 142zM555 688
c-35 -22 -71 -37 -113 -37c-50 0 -112 26 -160 26c-27 0 -47 -9 -72 -19l-60 88c33 19 71 35 110 35c55 0 107 -25 162 -25c29 0 47 6 73 17z" />
    <glyph glyph-name="ccedilla" unicode="&#xe7;" horiz-adv-x="652" 
d="M621 211c-31 -129 -140 -220 -272 -227l-20 -37c7 2 14 3 21 3c50 0 85 -43 85 -91c0 -64 -50 -104 -112 -104c-58 0 -101 35 -109 94h76c5 -17 14 -28 33 -28c23 0 36 16 36 38c0 20 -14 34 -34 34c-11 0 -21 -6 -27 -15l-65 35l36 75c-139 28 -236 149 -236 291
c0 164 128 295 293 295c142 0 265 -92 294 -233h-168c-26 49 -68 74 -124 74c-78 0 -128 -62 -128 -137c0 -78 51 -141 132 -141c55 0 95 26 120 74h169z" />
    <glyph glyph-name="eacute" unicode="&#xe9;" horiz-adv-x="646" 
d="M614 271c0 -15 -1 -29 -4 -44h-416c10 -66 65 -105 130 -105c45 0 74 18 101 52h170c-48 -111 -146 -192 -271 -192c-162 0 -294 132 -294 294c0 161 128 298 291 298c170 0 293 -136 293 -303zM448 339c-13 60 -66 95 -126 95s-113 -35 -126 -95h252zM490 730l-246 -109
l-47 98l240 129z" />
    <glyph glyph-name="ecircumflex" unicode="&#xea;" horiz-adv-x="646" 
d="M614 271c0 -15 -1 -29 -4 -44h-416c10 -66 65 -105 130 -105c45 0 74 18 101 52h170c-48 -111 -146 -192 -271 -192c-162 0 -294 132 -294 294c0 161 128 298 291 298c170 0 293 -136 293 -303zM448 339c-13 60 -66 95 -126 95s-113 -35 -126 -95h252zM530 640h-160
l-46 58l-46 -58h-162l156 166h108z" />
    <glyph glyph-name="edieresis" unicode="&#xeb;" horiz-adv-x="646" 
d="M614 271c0 -15 -1 -29 -4 -44h-416c10 -66 65 -105 130 -105c45 0 74 18 101 52h170c-48 -111 -146 -192 -271 -192c-162 0 -294 132 -294 294c0 161 128 298 291 298c170 0 293 -136 293 -303zM448 339c-13 60 -66 95 -126 95s-113 -35 -126 -95h252zM519 644h-159v151
h159v-151zM286 644h-159v151h159v-151z" />
    <glyph glyph-name="egrave" unicode="&#xe8;" horiz-adv-x="646" 
d="M614 271c0 -15 -1 -29 -4 -44h-416c10 -66 65 -105 130 -105c45 0 74 18 101 52h170c-48 -111 -146 -192 -271 -192c-162 0 -294 132 -294 294c0 161 128 298 291 298c170 0 293 -136 293 -303zM448 339c-13 60 -66 95 -126 95s-113 -35 -126 -95h252zM450 711l-46 -97
l-247 108l51 117z" />
    <glyph glyph-name="iacute" unicode="&#xed;" horiz-adv-x="286" 
d="M226 0h-166v555h166v-555zM335 730l-246 -109l-47 98l240 129z" />
    <glyph glyph-name="icircumflex" unicode="&#xee;" horiz-adv-x="286" 
d="M226 0h-166v555h166v-555zM350 640h-160l-46 58l-46 -58h-162l156 166h108z" />
    <glyph glyph-name="idieresis" unicode="&#xef;" horiz-adv-x="286" 
d="M226 0h-166v555h166v-555zM339 644h-159v151h159v-151zM106 644h-159v151h159v-151z" />
    <glyph glyph-name="igrave" unicode="&#xec;" horiz-adv-x="286" 
d="M226 0h-166v555h166v-555zM245 711l-46 -97l-247 108l51 117z" />
    <glyph glyph-name="ntilde" unicode="&#xf1;" horiz-adv-x="632" 
d="M574 0h-166v303c0 62 -12 115 -87 115c-77 0 -95 -50 -95 -116v-302h-166v555h155v-59h2c35 57 84 78 151 78c47 0 106 -18 142 -48c53 -44 64 -114 64 -179v-347zM519 688c-35 -22 -71 -37 -113 -37c-50 0 -112 26 -160 26c-27 0 -47 -9 -72 -19l-60 88
c33 19 71 35 110 35c55 0 107 -25 162 -25c29 0 47 6 73 17z" />
    <glyph glyph-name="oacute" unicode="&#xf3;" horiz-adv-x="666" 
d="M632 278c0 -170 -129 -295 -299 -295s-299 125 -299 295s129 295 299 295s299 -125 299 -295zM466 278c0 75 -56 140 -133 140s-133 -65 -133 -140s56 -140 133 -140s133 65 133 140zM500 730l-246 -109l-47 98l240 129z" />
    <glyph glyph-name="ocircumflex" unicode="&#xf4;" horiz-adv-x="666" 
d="M632 278c0 -170 -129 -295 -299 -295s-299 125 -299 295s129 295 299 295s299 -125 299 -295zM466 278c0 75 -56 140 -133 140s-133 -65 -133 -140s56 -140 133 -140s133 65 133 140zM540 640h-160l-46 58l-46 -58h-162l156 166h108z" />
    <glyph glyph-name="odieresis" unicode="&#xf6;" horiz-adv-x="666" 
d="M632 278c0 -170 -129 -295 -299 -295s-299 125 -299 295s129 295 299 295s299 -125 299 -295zM466 278c0 75 -56 140 -133 140s-133 -65 -133 -140s56 -140 133 -140s133 65 133 140zM529 644h-159v151h159v-151zM296 644h-159v151h159v-151z" />
    <glyph glyph-name="ograve" unicode="&#xf2;" horiz-adv-x="666" 
d="M632 278c0 -170 -129 -295 -299 -295s-299 125 -299 295s129 295 299 295s299 -125 299 -295zM466 278c0 75 -56 140 -133 140s-133 -65 -133 -140s56 -140 133 -140s133 65 133 140zM460 711l-46 -97l-247 108l51 117z" />
    <glyph glyph-name="otilde" unicode="&#xf5;" horiz-adv-x="666" 
d="M632 278c0 -170 -129 -295 -299 -295s-299 125 -299 295s129 295 299 295s299 -125 299 -295zM466 278c0 75 -56 140 -133 140s-133 -65 -133 -140s56 -140 133 -140s133 65 133 140zM536 688c-35 -22 -71 -37 -113 -37c-50 0 -112 26 -160 26c-27 0 -47 -9 -72 -19
l-60 88c33 19 71 35 110 35c55 0 107 -25 162 -25c29 0 47 6 73 17z" />
    <glyph glyph-name="scaron" unicode="&#x161;" horiz-adv-x="499" 
d="M476 170c0 -125 -113 -189 -226 -189c-116 0 -213 62 -226 184h165c5 -34 30 -51 63 -51c25 0 58 14 58 43c0 40 -45 52 -75 64c-24 8 -48 16 -72 25c-66 24 -132 67 -132 145c0 116 108 183 215 183c111 0 202 -57 213 -175h-163c-1 31 -23 42 -52 42
c-22 0 -47 -12 -47 -37c0 -87 279 -38 279 -234zM456 799l-155 -166h-108l-151 166h161l46 -58l46 58h161z" />
    <glyph glyph-name="uacute" unicode="&#xfa;" horiz-adv-x="634" 
d="M574 0h-157v59h-2c-29 -60 -82 -77 -144 -77c-61 0 -123 21 -163 70c-45 56 -50 102 -50 171v332h166v-307c0 -63 14 -111 89 -111c69 0 95 49 95 113v305h166v-555zM519 730l-246 -109l-47 98l240 129z" />
    <glyph glyph-name="ucircumflex" unicode="&#xfb;" horiz-adv-x="634" 
d="M574 0h-157v59h-2c-29 -60 -82 -77 -144 -77c-61 0 -123 21 -163 70c-45 56 -50 102 -50 171v332h166v-307c0 -63 14 -111 89 -111c69 0 95 49 95 113v305h166v-555zM524 640h-160l-46 58l-46 -58h-162l156 166h108z" />
    <glyph glyph-name="udieresis" unicode="&#xfc;" horiz-adv-x="634" 
d="M574 0h-157v59h-2c-29 -60 -82 -77 -144 -77c-61 0 -123 21 -163 70c-45 56 -50 102 -50 171v332h166v-307c0 -63 14 -111 89 -111c69 0 95 49 95 113v305h166v-555zM513 644h-159v151h159v-151zM280 644h-159v151h159v-151z" />
    <glyph glyph-name="ugrave" unicode="&#xf9;" horiz-adv-x="634" 
d="M574 0h-157v59h-2c-29 -60 -82 -77 -144 -77c-61 0 -123 21 -163 70c-45 56 -50 102 -50 171v332h166v-307c0 -63 14 -111 89 -111c69 0 95 49 95 113v305h166v-555zM409 711l-46 -97l-247 108l51 117z" />
    <glyph glyph-name="yacute" unicode="&#xfd;" horiz-adv-x="574" 
d="M573 555l-278 -740h-176l88 213l-206 527h177l111 -322h2l106 322h176zM489 730l-246 -109l-47 98l240 129z" />
    <glyph glyph-name="ydieresis" unicode="&#xff;" horiz-adv-x="574" 
d="M573 555l-278 -740h-176l88 213l-206 527h177l111 -322h2l106 322h176zM483 644h-159v151h159v-151zM250 644h-159v151h159v-151z" />
    <glyph glyph-name="zcaron" unicode="&#x17e;" horiz-adv-x="444" 
d="M428 0h-413v114l234 315h-234v126h413v-126l-217 -303h217v-126zM454 799l-155 -166h-108l-151 166h161l46 -58l46 58h161z" />
    <glyph glyph-name="oneeighth" unicode="&#x215b;" horiz-adv-x="856" 
d="M221 296h-123v338h-78v106h201v-444zM592 740l-311 -740h-136l310 740h137zM828 136c0 -88 -84 -145 -182 -145s-184 57 -184 145c0 45 25 88 69 111c-26 19 -41 46 -41 78c0 78 72 128 155 128c82 0 155 -50 155 -128c0 -32 -15 -62 -41 -81c48 -26 69 -63 69 -108z
M697 146c0 32 -20 52 -52 52s-52 -20 -52 -52s21 -51 54 -51c30 0 50 22 50 51zM686 323c0 20 -15 36 -40 36s-42 -16 -42 -39c0 -20 18 -35 40 -35c26 0 42 17 42 38z" />
    <glyph glyph-name="threeeighths" unicode="&#x215c;" horiz-adv-x="984" 
d="M379 428c0 -91 -99 -141 -179 -141c-52 0 -118 18 -150 62c-19 26 -25 52 -28 84h129c7 -27 21 -38 50 -38c28 0 48 13 48 43c0 34 -35 39 -67 39c-14 0 -28 -1 -37 -1v90h18c30 0 66 3 66 42c0 20 -12 33 -32 33c-25 0 -35 -12 -36 -35h-126c1 96 78 143 166 143
c72 0 152 -42 152 -123c0 -40 -22 -73 -57 -92c47 -15 83 -55 83 -106zM719 740l-311 -740h-136l310 740h137zM956 136c0 -88 -84 -145 -182 -145s-184 57 -184 145c0 45 25 88 69 111c-26 19 -41 46 -41 78c0 78 72 128 155 128c82 0 155 -50 155 -128
c0 -32 -15 -62 -41 -81c48 -26 69 -63 69 -108zM825 146c0 32 -20 52 -52 52s-52 -20 -52 -52s21 -51 54 -51c30 0 50 22 50 51zM814 323c0 20 -15 36 -40 36s-42 -16 -42 -39c0 -20 18 -35 40 -35c26 0 42 17 42 38z" />
    <glyph glyph-name="fiveeighths" unicode="&#x215d;" horiz-adv-x="985" 
d="M389 451c0 -97 -77 -164 -182 -164c-93 0 -166 53 -184 141h125c8 -17 24 -33 54 -33c36 0 57 23 57 53c0 27 -17 48 -56 48c-24 0 -44 -9 -59 -27l-101 24l37 247h267v-106h-168l-9 -53c14 9 43 14 62 14c92 0 157 -56 157 -144zM721 740l-311 -740h-136l310 740h137z
M957 136c0 -88 -84 -145 -182 -145s-184 57 -184 145c0 45 25 88 69 111c-26 19 -41 46 -41 78c0 78 72 128 155 128c82 0 155 -50 155 -128c0 -32 -15 -62 -41 -81c48 -26 69 -63 69 -108zM826 146c0 32 -20 52 -52 52s-52 -20 -52 -52s21 -51 54 -51c30 0 50 22 50 51z
M815 323c0 20 -15 36 -40 36s-42 -16 -42 -39c0 -20 18 -35 40 -35c26 0 42 17 42 38z" />
    <glyph glyph-name="seveneighths" unicode="&#x215e;" horiz-adv-x="888" 
d="M343 645l-166 -349h-139l170 338h-181v106h316v-95zM623 740l-311 -740h-136l310 740h137zM860 136c0 -88 -84 -145 -182 -145s-184 57 -184 145c0 45 25 88 69 111c-26 19 -41 46 -41 78c0 78 72 128 155 128c82 0 155 -50 155 -128c0 -32 -15 -62 -41 -81
c48 -26 69 -63 69 -108zM729 146c0 32 -20 52 -52 52s-52 -20 -52 -52s21 -51 54 -51c30 0 50 22 50 51zM718 323c0 20 -15 36 -40 36s-42 -16 -42 -39c0 -20 18 -35 40 -35c26 0 42 17 42 38z" />
    <glyph glyph-name="onethird" unicode="&#x2153;" horiz-adv-x="855" 
d="M221 296h-123v338h-78v106h201v-444zM592 740l-311 -740h-136l310 740h137zM827 132c0 -91 -99 -141 -179 -141c-52 0 -118 18 -150 62c-19 26 -25 52 -28 84h129c7 -27 21 -38 50 -38c28 0 48 13 48 43c0 34 -35 39 -67 39c-14 0 -28 -1 -37 -1v90h18c30 0 66 3 66 42
c0 20 -12 33 -32 33c-25 0 -35 -12 -36 -35h-126c1 96 78 143 166 143c72 0 152 -42 152 -123c0 -40 -22 -73 -57 -92c47 -15 83 -55 83 -106z" />
    <glyph glyph-name="twothirds" unicode="&#x2154;" horiz-adv-x="998" 
d="M376 296h-341v97c47 30 134 82 176 142c15 21 24 43 24 66s-9 41 -35 41c-37 0 -46 -38 -47 -68h-123c1 39 6 73 29 106c34 48 93 69 150 69c77 0 165 -43 165 -131c0 -49 -25 -94 -60 -133c-28 -31 -62 -59 -91 -81v-2h153v-106zM740 740l-311 -740h-136l310 740h137z
M970 132c0 -91 -99 -141 -179 -141c-52 0 -118 18 -150 62c-19 26 -25 52 -28 84h129c7 -27 21 -38 50 -38c28 0 48 13 48 43c0 34 -35 39 -67 39c-14 0 -28 -1 -37 -1v90h18c30 0 66 3 66 42c0 20 -12 33 -32 33c-25 0 -35 -12 -36 -35h-126c1 96 78 143 166 143
c72 0 152 -42 152 -123c0 -40 -22 -73 -57 -92c47 -15 83 -55 83 -106z" />
    <glyph glyph-name="uni00A0" unicode="&#xa0;" horiz-adv-x="309" 
 />
    <glyph glyph-name="uni00AD" unicode="&#xad;" horiz-adv-x="281" 
d="M281 207h-281v163h281v-163z" />
    <glyph glyph-name="two.superior" unicode="&#xb2;" horiz-adv-x="407" 
d="M376 422h-341v97c47 30 134 82 176 142c15 21 24 43 24 66s-9 41 -35 41c-37 0 -46 -38 -47 -68h-123c1 39 6 73 29 106c34 48 93 69 150 69c77 0 165 -43 165 -131c0 -49 -25 -94 -60 -133c-28 -31 -62 -59 -91 -81v-2h153v-106z" />
    <glyph glyph-name="three.superior" unicode="&#xb3;" horiz-adv-x="407" 
d="M379 554c0 -91 -99 -141 -179 -141c-52 0 -118 18 -150 62c-19 26 -25 52 -28 84h129c7 -27 21 -38 50 -38c28 0 48 13 48 43c0 34 -35 39 -67 39c-14 0 -28 -1 -37 -1v90h18c30 0 66 3 66 42c0 20 -12 33 -32 33c-25 0 -35 -12 -36 -35h-126c1 96 78 143 166 143
c72 0 152 -42 152 -123c0 -40 -22 -73 -57 -92c47 -15 83 -55 83 -106z" />
    <glyph glyph-name="one.superior" unicode="&#xb9;" horiz-adv-x="289" 
d="M221 422h-123v338h-78v106h201v-444z" />
    <glyph glyph-name="uni02C9" unicode="&#x2c9;" 
d="M457 648h-359v126h359v-126z" />
    <glyph glyph-name="uni03A9" unicode="&#x3a9;" horiz-adv-x="710" 
d="M662 0h-277v152c39 48 72 113 72 216c0 109 -36 177 -99 177c-68 0 -107 -71 -107 -183c0 -103 36 -168 73 -210v-152h-277v152h134c-60 48 -137 116 -137 259c0 174 129 301 318 301c202 0 303 -133 303 -297c0 -130 -59 -202 -138 -263h135v-152z" />
    <glyph glyph-name="uni03BC" unicode="&#x3bc;" horiz-adv-x="634" 
d="M581 0h-158v69h-1h-2c-14 -44 -54 -79 -102 -79c-39 0 -79 18 -98 54h-2v-234h-166v745h166v-274c0 -65 18 -144 98 -144s99 79 99 144v274h166v-555z" />
    <glyph glyph-name="pi" unicode="&#x3c0;" horiz-adv-x="653" 
d="M600 134l30 -116c-29 -19 -66 -29 -123 -29c-131 0 -142 91 -142 183v194h-81v-196c0 -88 -7 -130 -21 -170h-169c16 50 24 109 24 188v178c-24 0 -45 -3 -65 -17c-16 37 -29 72 -46 109c41 29 100 42 182 42h429v-134h-88v-165c0 -45 7 -79 37 -79c17 0 25 6 33 12z" />
    <glyph glyph-name="Euro" unicode="&#x20ac;" horiz-adv-x="618" 
d="M597 212c-19 -139 -95 -226 -238 -226c-164 0 -235 119 -256 267h-93l18 96h67v21v23h-85l18 96h77c25 142 99 265 258 265c135 0 216 -95 233 -222h-164c-10 30 -36 56 -69 56c-55 0 -74 -53 -82 -99h206l-18 -96h-197v-23v-21h189l-18 -96h-162c9 -46 28 -101 84 -101
c39 0 58 25 68 60h164z" />
    <glyph glyph-name="litre" unicode="&#x2113;" horiz-adv-x="495" 
d="M417 33c-36 -27 -91 -51 -147 -51c-55 0 -89 14 -119 44c-33 34 -49 100 -49 151v19c-15 -13 -29 -27 -45 -40c-13 26 -27 52 -40 78c28 26 57 51 85 76v181c0 156 75 237 183 237c103 0 137 -77 137 -140c0 -101 -51 -175 -122 -251c-10 -10 -23 -25 -30 -31v-100
c0 -76 23 -98 52 -98c20 0 40 13 54 25c13 -33 27 -66 41 -100zM334 565c0 19 -8 37 -29 37s-35 -24 -35 -70v-105c4 2 6 4 9 10c32 34 55 91 55 128z" />
    <glyph glyph-name="Omega" unicode="&#x2126;" horiz-adv-x="710" 
d="M662 0h-277v152c39 48 72 113 72 216c0 109 -36 177 -99 177c-68 0 -107 -71 -107 -183c0 -103 36 -168 73 -210v-152h-277v152h134c-60 48 -137 116 -137 259c0 174 129 301 318 301c202 0 303 -133 303 -297c0 -130 -59 -202 -138 -263h135v-152z" />
    <glyph glyph-name="estimated" unicode="&#x212e;" horiz-adv-x="662" 
d="M574 271h-418v-186c40 -40 90 -60 149 -60c87 0 151 42 198 122c12 -7 24 -14 35 -21c-58 -86 -123 -138 -233 -138c-164 0 -265 125 -265 283c0 157 100 282 264 282c169 0 264 -123 270 -282zM454 307v148c-42 42 -93 63 -151 63s-107 -21 -147 -62v-149h298z" />
    <glyph glyph-name="partialdiff" unicode="&#x2202;" horiz-adv-x="576" 
d="M570 440c0 -66 -7 -128 -21 -184c-44 -164 -148 -268 -287 -268s-234 92 -234 214c0 210 135 285 247 285c47 0 92 -20 108 -42h1c2 16 3 26 3 41c0 71 -43 113 -106 113c-34 0 -68 -11 -92 -25c-11 40 -23 80 -34 121c36 25 90 40 155 40c159 0 260 -109 260 -295z
M367 322c-12 27 -29 41 -52 41c-48 0 -96 -74 -96 -174c0 -35 13 -61 43 -61c63 0 100 118 105 194z" />
    <glyph glyph-name="Delta" unicode="&#x2206;" horiz-adv-x="608" 
d="M663 0h-644v75c62 209 123 416 185 625h279c60 -209 120 -416 180 -625v-75zM436 153c-28 112 -56 224 -84 337c-7 31 -15 60 -16 69h-6c-1 -8 -5 -34 -12 -65c-28 -114 -57 -228 -85 -341h203z" />
    <glyph glyph-name="product" unicode="&#x220f;" horiz-adv-x="719" 
d="M659 -230h-195v764h-210v-764h-195v930h600v-930z" />
    <glyph glyph-name="summation" unicode="&#x2211;" horiz-adv-x="631" 
d="M547 -230h-522v107l225 363c-72 115 -142 232 -214 347v113h496v-152h-273c62 -102 122 -202 184 -304c-65 -107 -130 -214 -195 -322h299v-152z" />
    <glyph glyph-name="uni2215" unicode="&#x2215;" horiz-adv-x="211" 
d="M329 740l-311 -740h-136l310 740h137z" />
    <glyph glyph-name="uni2219" unicode="&#x2219;" horiz-adv-x="314" 
d="M244 292h-173v170h173v-170z" />
    <glyph glyph-name="radical" unicode="&#x221a;" horiz-adv-x="513" 
d="M523 729l-150 -741h-152c-34 88 -67 175 -101 263c-18 -12 -36 -25 -54 -38c-19 28 -39 56 -58 85c63 45 127 90 190 135c33 -91 65 -180 98 -271l111 567h116z" />
    <glyph glyph-name="infinity" unicode="&#x221e;" horiz-adv-x="783" 
d="M747 293c0 -118 -87 -197 -191 -197c-62 0 -130 28 -174 93h-2c-40 -54 -97 -93 -174 -93c-84 0 -192 58 -192 197c0 130 109 192 193 192c72 0 133 -37 172 -94h2c27 41 88 94 175 94c108 0 191 -85 191 -192zM611 293c0 38 -26 70 -71 70c-40 0 -65 -26 -92 -72
c21 -42 51 -74 94 -74s69 37 69 76zM313 291c-25 38 -50 73 -93 73c-40 0 -70 -35 -70 -72c0 -38 28 -75 72 -75c40 0 71 36 91 74z" />
    <glyph glyph-name="integral" unicode="&#x222b;" horiz-adv-x="491" 
d="M412 604c-10 3 -24 7 -37 7c-30 0 -51 -20 -51 -71v-544c0 -129 -52 -236 -209 -236c-35 0 -83 7 -103 16c10 43 21 87 31 131c11 -4 24 -6 37 -6c32 0 52 23 52 71v540c0 136 57 240 211 240c39 0 88 -10 105 -19z" />
    <glyph glyph-name="approxequal" unicode="&#x2248;" horiz-adv-x="600" 
d="M580 369c-33 -44 -112 -88 -173 -88c-80 0 -127 68 -219 68c-43 0 -98 -35 -116 -69l-52 131c28 51 111 89 173 89c74 0 162 -68 215 -68c41 0 98 40 120 70zM580 99c-33 -44 -112 -88 -173 -88c-80 0 -127 68 -219 68c-43 0 -98 -35 -116 -69l-52 131
c28 51 111 89 173 89c74 0 162 -68 215 -68c41 0 98 40 120 70z" />
    <glyph glyph-name="notequal" unicode="&#x2260;" horiz-adv-x="600" 
d="M518 535l-45 -86h79v-145h-143l-53 -103h196v-145h-261l-44 -86h-165l44 86h-78v145h143l53 103h-196v145h261l45 86h164z" />
    <glyph glyph-name="lessequal" unicode="&#x2264;" horiz-adv-x="600" 
d="M554 102l-508 214v154l508 214v-175l-340 -115v-2l340 -115v-175zM552 -82h-504v160h504v-160z" />
    <glyph glyph-name="greaterequal" unicode="&#x2265;" horiz-adv-x="600" 
d="M554 316l-508 -214v175l340 115v2l-340 115v175l508 -214v-154zM552 -82h-504v160h504v-160z" />
    <glyph glyph-name="lozenge" unicode="&#x25ca;" horiz-adv-x="559" 
d="M484 350c-64 -117 -127 -233 -191 -350h-83c-63 116 -127 233 -190 349c63 117 127 234 190 351h83c64 -117 127 -233 191 -350zM356 350c-35 68 -69 135 -104 202c-35 -67 -70 -134 -104 -202c34 -68 69 -135 104 -202c35 67 69 134 104 202z" />
    <glyph glyph-name="A.alt01" unicode="&#xe000;" horiz-adv-x="722" 
d="M655 0h-189v107h-214l-65 -107h-227l508 740h187v-740zM466 257v205h-2l-122 -205h124z" />
    <glyph glyph-name="Aacute.alt01" unicode="&#xe001;" horiz-adv-x="722" 
d="M655 0h-189v107h-214l-65 -107h-227l508 740h187v-740zM466 257v205h-2l-122 -205h124zM413 874l240 129l53 -118l-246 -109z" />
    <glyph glyph-name="Agrave.alt01" unicode="&#xe002;" horiz-adv-x="722" 
d="M655 0h-189v107h-214l-65 -107h-227l508 740h187v-740zM466 257v205h-2l-122 -205h124zM423 1001l242 -128l-46 -97l-247 108z" />
    <glyph glyph-name="Acircumflex.alt01" unicode="&#xe003;" horiz-adv-x="722" 
d="M655 0h-189v107h-214l-65 -107h-227l508 740h187v-740zM466 257v205h-2l-122 -205h124zM613 971l160 -166h-160l-56 57l-56 -57h-162l166 166h108z" />
    <glyph glyph-name="Adieresis.alt01" unicode="&#xe004;" horiz-adv-x="722" 
d="M655 0h-189v107h-214l-65 -107h-227l508 740h187v-740zM466 257v205h-2l-122 -205h124zM522 966v-151h-159v151h159zM755 966v-151h-159v151h159z" />
    <glyph glyph-name="Atilde.alt01" unicode="&#xe005;" horiz-adv-x="722" 
d="M655 0h-189v107h-214l-65 -107h-227l508 740h187v-740zM466 257v205h-2l-122 -205h124zM677 959l55 -110c-35 -22 -71 -37 -113 -37c-50 0 -111 26 -160 26c-31 0 -51 -8 -77 -24l-55 113c33 19 71 35 110 35c55 0 107 -25 162 -25c29 0 54 4 78 22z" />
    <glyph glyph-name="Aring.alt01" unicode="&#xe006;" horiz-adv-x="722" 
d="M655 0h-189v107h-214l-65 -107h-227l508 740h187v-740zM466 257v205h-2l-122 -205h124zM560 1017c69 0 125 -57 125 -126s-57 -126 -126 -126s-126 57 -126 126c0 70 57 126 127 126zM558 936c-25 0 -43 -21 -43 -45s20 -43 44 -43s44 20 44 44c0 25 -20 44 -45 44z" />
    <glyph glyph-name="A.alt02" unicode="&#xe00a;" horiz-adv-x="722" 
d="M762 0h-227l-65 107h-214v-107h-189v740h187zM380 257l-122 205h-2v-205h124z" />
    <glyph glyph-name="Aacute.alt02" unicode="&#xe00b;" horiz-adv-x="722" 
d="M762 0h-227l-65 107h-214v-107h-189v740h187zM380 257l-122 205h-2v-205h124zM43 874l240 129l53 -118l-246 -109z" />
    <glyph glyph-name="Agrave.alt02" unicode="&#xe00c;" horiz-adv-x="722" 
d="M762 0h-227l-65 107h-214v-107h-189v740h187zM380 257l-122 205h-2v-205h124zM33 1001l242 -128l-46 -97l-247 108z" />
    <glyph glyph-name="Acircumflex.alt02" unicode="&#xe00d;" horiz-adv-x="722" 
d="M762 0h-227l-65 107h-214v-107h-189v740h187zM380 257l-122 205h-2v-205h124zM266 971l160 -166h-160l-56 57l-56 -57h-162l166 166h108z" />
    <glyph glyph-name="Adieresis.alt02" unicode="&#xe00e;" horiz-adv-x="722" 
d="M762 0h-227l-65 107h-214v-107h-189v740h187zM380 257l-122 205h-2v-205h124zM122 966v-151h-159v151h159zM355 966v-151h-159v151h159z" />
    <glyph glyph-name="Atilde.alt02" unicode="&#xe00f;" horiz-adv-x="722" 
d="M762 0h-227l-65 107h-214v-107h-189v740h187zM380 257l-122 205h-2v-205h124zM308 959l55 -110c-35 -22 -71 -37 -113 -37c-50 0 -111 26 -160 26c-31 0 -51 -8 -77 -24l-55 113c33 19 71 35 110 35c55 0 107 -25 162 -25c29 0 54 4 78 22z" />
    <glyph glyph-name="Aring.alt02" unicode="&#xe010;" horiz-adv-x="722" 
d="M762 0h-227l-65 107h-214v-107h-189v740h187zM380 257l-122 205h-2v-205h124zM160 1017c69 0 125 -57 125 -126s-57 -126 -126 -126s-126 57 -126 126c0 70 57 126 127 126zM158 936c-25 0 -43 -21 -43 -45s20 -43 44 -43s44 20 44 44c0 25 -20 44 -45 44z" />
    <glyph glyph-name="A.alt03" unicode="&#xe014;" horiz-adv-x="882" 
d="M815 0h-189l1 81h-2c-41 -53 -116 -95 -238 -95c-230 0 -352 198 -352 380c0 220 144 388 360 388c123 0 207 -54 230 -92h2l-1 78h189v-740zM627 369c0 96 -65 219 -201 219c-134 0 -202 -107 -202 -216c0 -119 74 -220 204 -220c134 0 199 122 199 217z" />
    <glyph glyph-name="Aacute.alt03" unicode="&#xe015;" horiz-adv-x="882" 
d="M815 0h-189l1 81h-2c-41 -53 -116 -95 -238 -95c-230 0 -352 198 -352 380c0 220 144 388 360 388c123 0 207 -54 230 -92h2l-1 78h189v-740zM627 369c0 96 -65 219 -201 219c-134 0 -202 -107 -202 -216c0 -119 74 -220 204 -220c134 0 199 122 199 217zM293 874
l240 129l53 -118l-246 -109z" />
    <glyph glyph-name="Agrave.alt03" unicode="&#xe016;" horiz-adv-x="882" 
d="M815 0h-189l1 81h-2c-41 -53 -116 -95 -238 -95c-230 0 -352 198 -352 380c0 220 144 388 360 388c123 0 207 -54 230 -92h2l-1 78h189v-740zM627 369c0 96 -65 219 -201 219c-134 0 -202 -107 -202 -216c0 -119 74 -220 204 -220c134 0 199 122 199 217zM306 1001
l242 -128l-46 -97l-247 108z" />
    <glyph glyph-name="Acircumflex.alt03" unicode="&#xe017;" horiz-adv-x="882" 
d="M815 0h-189l1 81h-2c-41 -53 -116 -95 -238 -95c-230 0 -352 198 -352 380c0 220 144 388 360 388c123 0 207 -54 230 -92h2l-1 78h189v-740zM627 369c0 96 -65 219 -201 219c-134 0 -202 -107 -202 -216c0 -119 74 -220 204 -220c134 0 199 122 199 217zM486 971
l160 -166h-160l-56 57l-56 -57h-162l166 166h108z" />
    <glyph glyph-name="Adieresis.alt03" unicode="&#xe018;" horiz-adv-x="882" 
d="M815 0h-189l1 81h-2c-41 -53 -116 -95 -238 -95c-230 0 -352 198 -352 380c0 220 144 388 360 388c123 0 207 -54 230 -92h2l-1 78h189v-740zM627 369c0 96 -65 219 -201 219c-134 0 -202 -107 -202 -216c0 -119 74 -220 204 -220c134 0 199 122 199 217zM398 966v-151
h-159v151h159zM631 966v-151h-159v151h159z" />
    <glyph glyph-name="Atilde.alt03" unicode="&#xe019;" horiz-adv-x="882" 
d="M815 0h-189l1 81h-2c-41 -53 -116 -95 -238 -95c-230 0 -352 198 -352 380c0 220 144 388 360 388c123 0 207 -54 230 -92h2l-1 78h189v-740zM627 369c0 96 -65 219 -201 219c-134 0 -202 -107 -202 -216c0 -119 74 -220 204 -220c134 0 199 122 199 217zM598 959
l55 -110c-35 -22 -71 -37 -113 -37c-50 0 -111 26 -160 26c-31 0 -51 -8 -77 -24l-55 113c33 19 71 35 110 35c55 0 107 -25 162 -25c29 0 54 4 78 22z" />
    <glyph glyph-name="Aring.alt03" unicode="&#xe01a;" horiz-adv-x="882" 
d="M815 0h-189l1 81h-2c-41 -53 -116 -95 -238 -95c-230 0 -352 198 -352 380c0 220 144 388 360 388c123 0 207 -54 230 -92h2l-1 78h189v-740zM627 369c0 96 -65 219 -201 219c-134 0 -202 -107 -202 -216c0 -119 74 -220 204 -220c134 0 199 122 199 217zM432 1037
c69 0 125 -57 125 -126s-57 -126 -126 -126s-126 57 -126 126c0 70 57 126 127 126zM430 956c-25 0 -43 -21 -43 -45s20 -43 44 -43s44 20 44 44c0 25 -20 44 -45 44z" />
    <glyph glyph-name="C.alt01" unicode="&#xe01e;" horiz-adv-x="601" 
d="M547 8c-29 -12 -87 -22 -130 -22c-227 0 -380 185 -380 385c0 199 148 383 388 383c47 0 83 -7 122 -22v-177c-27 17 -66 33 -123 33c-127 0 -198 -111 -198 -216c0 -112 76 -220 199 -220c51 0 88 13 122 35v-179z" />
    <glyph glyph-name="Ccedilla.alt01" unicode="&#xe01f;" horiz-adv-x="601" 
d="M547 8c-28 -12 -84 -22 -127 -22h-3h-10l-21 -39c6 2 13 3 21 3c38 0 85 -27 85 -91c0 -50 -36 -104 -112 -104c-17 0 -97 5 -109 94h76c5 -13 10 -28 33 -28s36 16 36 38c0 21 -15 34 -34 34c-13 0 -21 -7 -27 -15l-65 35l40 83c-178 40 -293 202 -293 375
c0 199 148 383 388 383c47 0 83 -7 122 -22v-177c-27 17 -66 33 -123 33c-127 0 -198 -111 -198 -216c0 -112 76 -220 199 -220c51 0 88 13 122 35v-179z" />
    <glyph glyph-name="E.alt01" unicode="&#xe024;" horiz-adv-x="601" 
d="M547 8c-29 -12 -87 -22 -130 -22c-216 0 -380 161 -380 385c0 226 165 383 388 383c47 0 83 -7 122 -22v-177c-27 17 -66 33 -123 33c-91 0 -154 -58 -182 -129h296v-166h-299c26 -79 93 -141 186 -141c51 0 88 13 122 35v-179z" />
    <glyph glyph-name="Eacute.alt01" unicode="&#xe025;" horiz-adv-x="601" 
d="M547 8c-29 -12 -87 -22 -130 -22c-216 0 -380 161 -380 385c0 226 165 383 388 383c47 0 83 -7 122 -22v-177c-27 17 -66 33 -123 33c-91 0 -154 -58 -182 -129h296v-166h-299c26 -79 93 -141 186 -141c51 0 88 13 122 35v-179zM258 874l240 129l53 -118l-246 -109z" />
    <glyph glyph-name="Egrave.alt01" unicode="&#xe026;" horiz-adv-x="601" 
d="M547 8c-29 -12 -87 -22 -130 -22c-216 0 -380 161 -380 385c0 226 165 383 388 383c47 0 83 -7 122 -22v-177c-27 17 -66 33 -123 33c-91 0 -154 -58 -182 -129h296v-166h-299c26 -79 93 -141 186 -141c51 0 88 13 122 35v-179zM279 1001l242 -128l-46 -97l-247 108z" />
    <glyph glyph-name="Ecircumflex.alt01" unicode="&#xe027;" horiz-adv-x="601" 
d="M547 8c-29 -12 -87 -22 -130 -22c-216 0 -380 161 -380 385c0 226 165 383 388 383c47 0 83 -7 122 -22v-177c-27 17 -66 33 -123 33c-91 0 -154 -58 -182 -129h296v-166h-299c26 -79 93 -141 186 -141c51 0 88 13 122 35v-179zM426 971l160 -166h-160l-56 57l-56 -57
h-162l166 166h108z" />
    <glyph glyph-name="Edieresis.alt01" unicode="&#xe028;" horiz-adv-x="601" 
d="M547 8c-29 -12 -87 -22 -130 -22c-216 0 -380 161 -380 385c0 226 165 383 388 383c47 0 83 -7 122 -22v-177c-27 17 -66 33 -123 33c-91 0 -154 -58 -182 -129h296v-166h-299c26 -79 93 -141 186 -141c51 0 88 13 122 35v-179zM341 966v-151h-159v151h159zM574 966v-151
h-159v151h159z" />
    <glyph glyph-name="E.alt02" unicode="&#xe02e;" horiz-adv-x="850" 
d="M815 367c0 -29 -3 -44 -6 -63h-575c24 -90 98 -152 193 -152c76 0 126 40 158 83h206c-56 -147 -195 -249 -364 -249c-236 0 -392 179 -392 381c0 232 181 387 388 387c226 0 392 -171 392 -387zM616 437c-16 55 -70 151 -191 151c-109 0 -168 -74 -192 -151h383z" />
    <glyph glyph-name="Eacute.alt02" unicode="&#xe02f;" horiz-adv-x="850" 
d="M815 367c0 -29 -3 -44 -6 -63h-575c24 -90 98 -152 193 -152c76 0 126 40 158 83h206c-56 -147 -195 -249 -364 -249c-236 0 -392 179 -392 381c0 232 181 387 388 387c226 0 392 -171 392 -387zM616 437c-16 55 -70 151 -191 151c-109 0 -168 -74 -192 -151h383z
M298 874l240 129l53 -118l-246 -109z" />
    <glyph glyph-name="Egrave.alt02" unicode="&#xe030;" horiz-adv-x="850" 
d="M815 367c0 -29 -3 -44 -6 -63h-575c24 -90 98 -152 193 -152c76 0 126 40 158 83h206c-56 -147 -195 -249 -364 -249c-236 0 -392 179 -392 381c0 232 181 387 388 387c226 0 392 -171 392 -387zM616 437c-16 55 -70 151 -191 151c-109 0 -168 -74 -192 -151h383z
M323 1001l242 -128l-46 -97l-247 108z" />
    <glyph glyph-name="Ecircumflex.alt02" unicode="&#xe031;" horiz-adv-x="850" 
d="M815 367c0 -29 -3 -44 -6 -63h-575c24 -90 98 -152 193 -152c76 0 126 40 158 83h206c-56 -147 -195 -249 -364 -249c-236 0 -392 179 -392 381c0 232 181 387 388 387c226 0 392 -171 392 -387zM616 437c-16 55 -70 151 -191 151c-109 0 -168 -74 -192 -151h383z
M479 971l160 -166h-160l-56 57l-56 -57h-162l166 166h108z" />
    <glyph glyph-name="Edieresis.alt02" unicode="&#xe032;" horiz-adv-x="850" 
d="M815 367c0 -29 -3 -44 -6 -63h-575c24 -90 98 -152 193 -152c76 0 126 40 158 83h206c-56 -147 -195 -249 -364 -249c-236 0 -392 179 -392 381c0 232 181 387 388 387c226 0 392 -171 392 -387zM616 437c-16 55 -70 151 -191 151c-109 0 -168 -74 -192 -151h383z
M385 966v-151h-159v151h159zM618 966v-151h-159v151h159z" />
    <glyph glyph-name="K.alt01" unicode="&#xe038;" horiz-adv-x="687" 
d="M681 0h-221l-148 261l-56 -74v-187h-189v740h189v-302h2l204 302h213l-252 -333z" />
    <glyph glyph-name="K.alt02" unicode="&#xe03a;" horiz-adv-x="697" 
d="M691 0h-231l-203 371l210 369h208l-220 -369zM256 0h-189v740h189v-740z" />
    <glyph glyph-name="M.alt01" unicode="&#xe03c;" horiz-adv-x="1190" 
d="M1123 0h-189v441h-2l-309 -441h-157v441h-2l-287 -441h-217l508 740h187v-407h2l279 407h187v-740z" />
    <glyph glyph-name="M.alt02" unicode="&#xe03d;" horiz-adv-x="1190" 
d="M1230 0h-217l-287 441h-2v-441h-157l-309 441h-2v-441h-189v740h187l279 -407h2v407h187z" />
    <glyph glyph-name="M.alt03" unicode="&#xe03e;" horiz-adv-x="1138" 
d="M1072 0h-189v439c0 97 -30 148 -108 148c-60 0 -111 -39 -111 -133v-454h-189v439c0 97 -30 148 -108 148c-60 0 -111 -39 -111 -133v-454h-189v740h179v-74h3c36 59 98 88 167 88c105 0 169 -50 204 -120h3c34 63 108 120 201 120c87 0 140 -22 183 -71
c50 -57 65 -125 65 -224v-459z" />
    <glyph glyph-name="N.alt01" unicode="&#xe03f;" horiz-adv-x="739" 
d="M674 0h-189v439c0 97 -40 148 -118 148c-60 0 -111 -39 -111 -133v-454h-189v740h179v-74h3c36 59 108 88 177 88c87 0 140 -22 183 -71c50 -57 65 -125 65 -224v-459z" />
    <glyph glyph-name="Ntilde.alt01" unicode="&#xe040;" horiz-adv-x="739" 
d="M674 0h-189v439c0 97 -40 148 -118 148c-60 0 -111 -39 -111 -133v-454h-189v740h179v-74h3c36 59 108 88 177 88c87 0 140 -22 183 -71c50 -57 65 -125 65 -224v-459zM528 958l55 -110c-35 -22 -71 -37 -113 -37c-50 0 -111 26 -160 26c-31 0 -51 -8 -77 -24l-55 113
c33 19 71 35 110 35c55 0 107 -25 162 -25c29 0 54 4 78 22z" />
    <glyph glyph-name="U.alt01" unicode="&#xe044;" horiz-adv-x="739" 
d="M672 0h-179v74h-3c-36 -59 -108 -88 -177 -88c-87 0 -140 22 -183 71c-50 57 -65 125 -65 224v459h189v-439c0 -97 40 -148 118 -148c60 0 111 39 111 133v454h189v-740z" />
    <glyph glyph-name="Uacute.alt01" unicode="&#xe045;" horiz-adv-x="739" 
d="M672 0h-179v74h-3c-36 -59 -108 -88 -177 -88c-87 0 -140 22 -183 71c-50 57 -65 125 -65 224v459h189v-439c0 -97 40 -148 118 -148c60 0 111 39 111 133v454h189v-740zM253 874l240 129l53 -118l-246 -109z" />
    <glyph glyph-name="Ugrave.alt01" unicode="&#xe046;" horiz-adv-x="739" 
d="M672 0h-179v74h-3c-36 -59 -108 -88 -177 -88c-87 0 -140 22 -183 71c-50 57 -65 125 -65 224v459h189v-439c0 -97 40 -148 118 -148c60 0 111 39 111 133v454h189v-740zM253 1001l242 -128l-46 -97l-247 108z" />
    <glyph glyph-name="Ucircumflex.alt01" unicode="&#xe047;" horiz-adv-x="739" 
d="M672 0h-179v74h-3c-36 -59 -108 -88 -177 -88c-87 0 -140 22 -183 71c-50 57 -65 125 -65 224v459h189v-439c0 -97 40 -148 118 -148c60 0 111 39 111 133v454h189v-740zM418 971l160 -166h-160l-56 57l-56 -57h-162l166 166h108z" />
    <glyph glyph-name="Udieresis.alt01" unicode="&#xe048;" horiz-adv-x="739" 
d="M672 0h-179v74h-3c-36 -59 -108 -88 -177 -88c-87 0 -140 22 -183 71c-50 57 -65 125 -65 224v459h189v-439c0 -97 40 -148 118 -148c60 0 111 39 111 133v454h189v-740zM332 966v-151h-159v151h159zM565 966v-151h-159v151h159z" />
    <glyph glyph-name="V.alt02" unicode="&#xe04f;" horiz-adv-x="759" 
d="M799 740l-508 -740h-224v740h189v-483h2l314 483h227z" />
    <glyph glyph-name="V.alt01" unicode="&#xe050;" horiz-adv-x="779" 
d="M712 0h-224l-528 740h227l334 -483h2v483h189v-740z" />
    <glyph glyph-name="W.alt02" unicode="&#xe051;" horiz-adv-x="1196" 
d="M1236 740l-507 -740h-190v410h-2l-281 -410h-189v740h189v-430h2l298 430h172v-438h2l291 438h215z" />
    <glyph glyph-name="W.alt01" unicode="&#xe056;" horiz-adv-x="1206" 
d="M1139 0h-189l-281 410h-2v-410h-191l-516 740h215l301 -438h2v438h172l298 -430h2v430h189v-740z" />
    <glyph glyph-name="c.alt01" unicode="&#xe05b;" horiz-adv-x="536" 
d="M502 32c-46 -31 -108 -50 -172 -50c-198 0 -297 155 -297 288c0 200 139 304 298 304c84 0 130 -21 171 -47v-157c-27 23 -78 49 -142 49c-114 0 -160 -73 -160 -141c0 -79 60 -141 153 -141c67 0 107 24 149 60v-165z" />
    <glyph glyph-name="ccedilla.alt01" unicode="&#xe05c;" horiz-adv-x="536" 
d="M502 32c-41 -27 -94 -45 -149 -49l-20 -36c6 2 13 3 21 3c38 0 85 -27 85 -91c0 -50 -36 -104 -112 -104c-17 0 -97 5 -109 94h76c5 -13 10 -28 33 -28s36 16 36 38c0 21 -15 34 -34 34c-13 0 -21 -7 -27 -15l-65 35l36 74c-160 26 -240 164 -240 283
c0 200 139 304 298 304c84 0 130 -21 171 -47v-157c-27 23 -78 49 -142 49c-114 0 -160 -73 -160 -141c0 -79 60 -141 153 -141c67 0 107 24 149 60v-165z" />
    <glyph glyph-name="e.alt01" unicode="&#xe061;" horiz-adv-x="611" 
d="M601 361l-376 -199c27 -28 60 -40 99 -40c97 0 178 65 224 123v-162c-47 -52 -118 -101 -224 -101c-179 0 -294 136 -294 294c0 192 146 298 291 298c150 0 249 -102 280 -213zM420 392c-23 27 -58 42 -98 42c-103 0 -137 -89 -137 -142c0 -10 0 -17 2 -24z" />
    <glyph glyph-name="eacute.alt01" unicode="&#xe062;" horiz-adv-x="611" 
d="M601 361l-376 -199c27 -28 60 -40 99 -40c97 0 178 65 224 123v-162c-47 -52 -118 -101 -224 -101c-179 0 -294 136 -294 294c0 192 146 298 291 298c150 0 249 -102 280 -213zM420 392c-23 27 -58 42 -98 42c-103 0 -137 -89 -137 -142c0 -10 0 -17 2 -24zM197 719
l240 129l53 -118l-246 -109z" />
    <glyph glyph-name="egrave.alt01" unicode="&#xe063;" horiz-adv-x="611" 
d="M601 361l-376 -199c27 -28 60 -40 99 -40c97 0 178 65 224 123v-162c-47 -52 -118 -101 -224 -101c-179 0 -294 136 -294 294c0 192 146 298 291 298c150 0 249 -102 280 -213zM420 392c-23 27 -58 42 -98 42c-103 0 -137 -89 -137 -142c0 -10 0 -17 2 -24zM208 839
l242 -128l-46 -97l-247 108z" />
    <glyph glyph-name="ecircumflex.alt01" unicode="&#xe064;" horiz-adv-x="611" 
d="M601 361l-376 -199c27 -28 60 -40 99 -40c97 0 178 65 224 123v-162c-47 -52 -118 -101 -224 -101c-179 0 -294 136 -294 294c0 192 146 298 291 298c150 0 249 -102 280 -213zM420 392c-23 27 -58 42 -98 42c-103 0 -137 -89 -137 -142c0 -10 0 -17 2 -24zM380 806
l160 -166h-160l-56 57l-56 -57h-162l166 166h108z" />
    <glyph glyph-name="edieresis.alt01" unicode="&#xe065;" horiz-adv-x="611" 
d="M601 361l-376 -199c27 -28 60 -40 99 -40c97 0 178 65 224 123v-162c-47 -52 -118 -101 -224 -101c-179 0 -294 136 -294 294c0 192 146 298 291 298c150 0 249 -102 280 -213zM420 392c-23 27 -58 42 -98 42c-103 0 -137 -89 -137 -142c0 -10 0 -17 2 -24zM274 795v-151
h-159v151h159zM507 795v-151h-159v151h159z" />
    <glyph glyph-name="f.alt01" unicode="&#xe06b;" horiz-adv-x="292" 
d="M302 615h-19c-14 0 -51 -5 -51 -52v-563h-166v429h-62v126h62v15c0 156 131 170 212 170h24v-125z" />
    <glyph glyph-name="f.alt02" unicode="&#xe06c;" horiz-adv-x="308" 
d="M296 429h-70v-429h-166v570c0 156 131 170 212 170h24v-125h-19c-14 0 -51 -5 -51 -52v-8h70v-126z" />
    <glyph glyph-name="k.alt01" unicode="&#xe06d;" horiz-adv-x="590" 
d="M584 555l-207 -244l203 -311h-190l-117 192l-42 -49v-143h-165v740h165v-398h2l154 213h197z" />
    <glyph glyph-name="k.alt02" unicode="&#xe06f;" horiz-adv-x="591" 
d="M234 287l154 268h197l-182 -256l176 -299h-188zM232 740v-740h-166v740h166z" />
    <glyph glyph-name="t.alt01" unicode="&#xe071;" horiz-adv-x="319" 
d="M259 0h-166v429h-82v126h82v185h166v-740z" />
    <glyph glyph-name="t.alt02" unicode="&#xe075;" horiz-adv-x="318" 
d="M306 429h-80v-429h-166v740h166v-185h80v-126z" />
    <glyph glyph-name="v.alt02" unicode="&#xe079;" horiz-adv-x="612" 
d="M652 555l-404 -555h-188v555h166v-346h2l245 346h179z" />
    <glyph glyph-name="v.alt01" unicode="&#xe07a;" horiz-adv-x="612" 
d="M552 0h-188l-404 555h179l245 -346h2v346h166v-555z" />
    <glyph glyph-name="w.alt02" unicode="&#xe07b;" horiz-adv-x="933" 
d="M973 555l-409 -555h-157v264l-193 -264h-154v555h166v-298h2l219 298h126v-289h2l213 289h185z" />
    <glyph glyph-name="w.alt01" unicode="&#xe080;" horiz-adv-x="933" 
d="M873 0h-154l-193 264v-264h-157l-409 555h185l213 -289h2v289h126l219 -298h2v298h166v-555z" />
    <glyph glyph-name="y.alt01" unicode="&#xe085;" horiz-adv-x="615" 
d="M655 555l-510 -740h-195l110 159v581h166v-337h5l229 337h195z" />
    <glyph glyph-name="yacute.alt01" unicode="&#xe086;" horiz-adv-x="615" 
d="M655 555l-510 -740h-195l110 159v581h166v-337h5l229 337h195zM235 719l240 129l53 -118l-246 -109z" />
    <glyph glyph-name="ydieresis.alt01" unicode="&#xe087;" horiz-adv-x="615" 
d="M655 555l-510 -740h-195l110 159v581h166v-337h5l229 337h195zM314 795v-151h-159v151h159zM547 795v-151h-159v151h159z" />
    <glyph glyph-name="C_A" unicode="&#xe08a;" horiz-adv-x="1057" 
d="M990 0h-189v107h-214l-67 -110c-16 -4 -51 -11 -93 -11c-232 0 -390 185 -390 385c0 189 146 383 388 383c108 0 193 -41 245 -84l-103 -150c-25 32 -72 68 -144 68c-121 0 -197 -106 -197 -216c0 -107 67 -203 174 -219l403 587h187v-740zM801 257v205h-2l-122 -205h124
z" />
    <glyph glyph-name="C_O.alt01" unicode="&#xe0a1;" horiz-adv-x="832" 
d="M601 370c0 -96 -78 -174 -174 -174s-175 78 -175 174s79 174 175 174s174 -78 174 -174zM791 497h-211c-30 38 -87 73 -156 73c-105 0 -198 -90 -198 -198c0 -114 94 -202 199 -202c76 0 123 39 145 61h217c-60 -154 -200 -245 -360 -245c-232 0 -390 185 -390 385
c0 189 146 383 388 383c184 0 324 -121 366 -257zM466 368c0 23 -17 41 -39 41s-40 -18 -40 -41s18 -42 40 -42s39 19 39 42z" />
    <glyph glyph-name="C_O" unicode="&#xe0a2;" horiz-adv-x="1179" 
d="M1142 370c0 -206 -162 -384 -392 -384c-59 0 -113 13 -161 35c-46 -24 -97 -35 -162 -35c-232 0 -390 185 -390 385c0 189 146 383 388 383c70 0 118 -12 161 -35c49 22 104 35 165 35c228 0 391 -178 391 -384zM953 369c0 96 -65 219 -201 219h-9c26 -36 48 -79 57 -129
h-167c-7 20 -19 42 -36 62c-35 -41 -52 -96 -52 -149c0 -59 17 -114 52 -154c15 17 29 41 36 59h167c-11 -46 -32 -88 -58 -125h12c134 0 199 122 199 217zM434 152c-44 64 -68 138 -68 209c0 84 24 162 67 227h-9c-127 0 -198 -111 -198 -216c0 -112 76 -220 199 -220h9z
" />
    <glyph glyph-name="D_E" unicode="&#xe0ba;" horiz-adv-x="1158" 
d="M1108 0h-411v260h-2c-33 -146 -138 -260 -369 -260h-259v740h262c197 0 316 -83 366 -265h2v265h411v-166h-230v-115h223v-166h-223v-127h230v-166zM518 369c0 103 -44 205 -176 205h-86v-408h81c141 0 181 98 181 203z" />
    <glyph glyph-name="D_I" unicode="&#xe0c8;" horiz-adv-x="953" 
d="M886 0h-189v260h-2c-33 -146 -138 -260 -369 -260h-259v740h262c197 0 316 -83 366 -265h2v265h189v-740zM518 369c0 103 -44 205 -176 205h-86v-408h81c141 0 181 98 181 203z" />
    <glyph glyph-name="E_A" unicode="&#xe0d5;" horiz-adv-x="1034" 
d="M967 0h-189v107h-244l-73 -107h-394v740h411v-166h-230v-118h194v-154h-194v-136h138l394 574h187v-740zM778 257v205h-2l-140 -205h142z" />
    <glyph glyph-name="F_A" unicode="&#xe0de;" horiz-adv-x="1019" 
d="M952 0h-189v126h-237l-86 -126h-373v740h423v-166h-234v-109h177v-166h-177v-267l509 708h187v-740zM763 276v195h-2l-133 -195h135z" />
    <glyph glyph-name="F_R" unicode="&#xe0e7;" horiz-adv-x="773" 
d="M813 0h-206l-136 168h-2v-168h-167v219h-54v-219h-181v740h402v-166h-221v-189h54v146h191c107 0 149 -11 188 -38c50 -35 74 -92 74 -147c0 -62 -33 -132 -111 -159zM574 341c0 35 -28 52 -68 52h-37v-107h37c61 0 68 36 68 55z" />
    <glyph glyph-name="G_A" unicode="&#xe0e9;" horiz-adv-x="1167" 
d="M1100 0h-189v107h-214c-51 -64 -131 -122 -274 -122c-214 0 -388 170 -388 388c0 221 178 381 396 381c139 0 249 -74 299 -137l-98 -156c-29 53 -96 127 -206 127c-93 0 -202 -69 -202 -215c0 -155 110 -222 203 -222c100 0 140 48 174 108h-214v151h309l207 330h197
v-740zM911 257v205h-2l-122 -205h124z" />
    <glyph glyph-name="G_O" unicode="&#xe0fc;" horiz-adv-x="1448" 
d="M1413 370c0 -206 -162 -384 -392 -384c-128 0 -228 55 -294 130c-78 -87 -184 -131 -299 -131c-224 0 -393 175 -393 388c0 221 178 381 396 381c118 0 225 -53 295 -131c61 70 158 131 296 131c228 0 391 -178 391 -384zM1224 369c0 96 -65 219 -201 219
c-131 0 -202 -112 -202 -216c0 -114 77 -220 204 -220c134 0 199 122 199 217zM651 492h-62c-29 52 -83 96 -163 96c-93 0 -202 -69 -202 -215c0 -155 110 -222 203 -222c94 0 157 47 177 119h-221v151h253c3 23 8 47 15 71z" />
    <glyph glyph-name="H_T" unicode="&#xe10c;" horiz-adv-x="1040" 
d="M1031 574h-124v-574h-189v740h313v-166zM687 0h-189v287h-242v-287h-189v740h189v-287h242v121h-122v166h311v-740z" />
    <glyph glyph-name="I_C" unicode="&#xe10e;" horiz-adv-x="1041" 
d="M1010 277c-43 -175 -195 -291 -374 -291c-201 0 -339 137 -378 290h-2v-276h-189v740h189v-275h2c40 153 171 289 376 289c232 0 356 -179 376 -295h-198c-21 55 -77 129 -179 129c-127 0 -198 -111 -198 -216c0 -112 76 -220 199 -220c118 0 166 99 178 125h198z" />
    <glyph glyph-name="K_A" unicode="&#xe124;" horiz-adv-x="1081" 
d="M1014 0h-189v107h-214l70 -107h-362l73 107l-134 213h-2v-320h-189v740h189v-339h2l232 339h207l-255 -372l63 -97l322 469h187v-740zM825 257v205h-2l-122 -205h124z" />
    <glyph glyph-name="L_A" unicode="&#xe130;" horiz-adv-x="848" 
d="M781 0h-189v213h-192l-31 -47h106v-166h-408v740h189v-440h2l292 440h231v-740zM592 363v134h-2l-91 -134h93z" />
    <glyph glyph-name="L_A.alt01" unicode="&#xe141;" horiz-adv-x="934" 
d="M867 0h-189v213h-192l-31 -47h106v-166h-494v740h189v-575l380 575h231v-740zM678 363v134h-2l-91 -134h93z" />
    <glyph glyph-name="L_L" unicode="&#xe152;" horiz-adv-x="623" 
d="M616 197h-329v543h189v-377h140v-166zM616 0h-549v740h189v-574h360v-166z" />
    <glyph glyph-name="N_T" unicode="&#xe153;" horiz-adv-x="1038" 
d="M1037 574h-124v-574h-189v740h313v-166zM693 0h-166l-277 422l-2 -1v-421h-181v740h163l280 -437l2 2v269h-107v166h288v-740z" />
    <glyph glyph-name="O_C" unicode="&#xe15b;" horiz-adv-x="1174" 
d="M1143 277c-43 -175 -195 -291 -374 -291c-63 0 -121 14 -172 38c-51 -24 -109 -38 -173 -38c-233 0 -389 185 -389 375c0 220 161 393 390 393c63 0 120 -13 171 -37c50 23 107 37 171 37c232 0 356 -179 376 -295h-198c-21 55 -77 129 -179 129c-6 0 -12 0 -17 -1
c43 -62 67 -138 67 -217s-24 -155 -67 -217c6 -1 12 -1 18 -1c118 0 166 99 178 125h198zM640 369c0 45 -14 96 -43 140c-28 -42 -42 -90 -42 -137c0 -50 15 -99 42 -141c29 44 43 93 43 138zM447 153c-44 63 -68 140 -68 218c0 75 23 152 67 216c-7 1 -13 1 -20 1
c-131 0 -202 -112 -202 -216c0 -114 77 -220 204 -220c6 0 13 0 19 1z" />
    <glyph glyph-name="O_O" unicode="&#xe170;" horiz-adv-x="1195" 
d="M1160 370c0 -206 -162 -384 -392 -384c-63 0 -121 14 -171 37c-51 -23 -110 -37 -173 -37c-233 0 -389 185 -389 375c0 220 160 393 390 393c63 0 121 -14 172 -37c48 22 105 37 172 37c228 0 391 -178 391 -384zM971 369c0 96 -65 219 -201 219c-7 0 -14 0 -21 -1
c43 -62 67 -138 67 -217s-24 -154 -67 -217c8 -1 15 -1 23 -1c134 0 199 122 199 217zM640 369c0 45 -14 96 -43 140c-28 -42 -42 -90 -42 -137c0 -50 15 -99 42 -141c29 44 43 93 43 138zM445 153c-43 61 -66 134 -66 208c0 82 19 158 66 226c-6 1 -12 1 -19 1
c-131 0 -202 -112 -202 -216c0 -114 77 -220 204 -220c6 0 11 0 17 1z" />
    <glyph glyph-name="P_P" unicode="&#xe172;" horiz-adv-x="773" 
d="M755 346c0 -56 -36 -179 -222 -179h-64v-167h-167v232h-54v-232h-181v740h229c137 0 188 -21 228 -54c58 -48 74 -116 78 -162c31 -5 55 -15 79 -31c50 -35 74 -92 74 -147zM574 341c0 35 -25 52 -68 52h-37v-107h37c53 0 68 26 68 55zM406 531c-18 40 -60 43 -101 43
h-57v-176h54v133h104z" />
    <glyph glyph-name="P_R" unicode="&#xe173;" horiz-adv-x="773" 
d="M813 0h-206l-136 168h-2v-168h-167v232h-54v-232h-181v740h229c137 0 188 -21 228 -54c58 -48 74 -116 78 -162c31 -5 55 -15 79 -31c50 -35 74 -92 74 -147c0 -62 -33 -132 -111 -159zM574 341c0 35 -28 52 -68 52h-37v-107h37c61 0 68 36 68 55zM406 531
c-18 40 -60 43 -101 43h-57v-176h54v133h104z" />
    <glyph glyph-name="R_A" unicode="&#xe174;" horiz-adv-x="1147" 
d="M1080 0h-189v107h-214l-65 -107h-191l-171 239h-2v-239h-181v740h234c130 0 180 -16 228 -53c61 -48 91 -126 91 -202c0 -85 -44 -210 -184 -233l66 -83l391 571h187v-740zM891 257v205h-2l-122 -205h124zM439 474c0 67 -49 100 -122 100h-69v-206h67
c111 0 124 70 124 106z" />
    <glyph glyph-name="S_S" unicode="&#xe185;" horiz-adv-x="905" 
d="M883 213c0 -108 -63 -227 -244 -227c-92 0 -146 28 -179 56c-34 -30 -90 -56 -168 -56c-207 0 -259 132 -259 232v27h188c0 -72 31 -101 74 -101c46 0 67 37 67 62c0 53 -23 71 -137 118c-52 22 -170 73 -170 212c0 146 123 218 236 218c95 0 149 -37 172 -64
c28 31 87 64 178 64c64 0 138 -27 186 -84c44 -54 47 -104 49 -146h-187c-4 25 -10 72 -68 72c-34 0 -53 -28 -53 -49c0 -56 24 -69 141 -122c138 -62 174 -126 174 -212zM694 207c0 46 -16 64 -119 106c-17 7 -55 23 -80 39v-2c37 -33 56 -81 56 -128c0 -57 41 -78 76 -78
c38 0 67 30 67 63zM434 396v2c-24 26 -53 60 -53 133c-4 25 -25 65 -74 65c-45 0 -63 -31 -63 -58c0 -49 33 -68 133 -113c29 -13 41 -20 57 -29z" />
    <glyph glyph-name="S_T" unicode="&#xe186;" horiz-adv-x="947" 
d="M938 574h-145v-574h-189v574h-64c2 -13 3 -31 4 -50h-187c-4 25 -11 72 -66 72c-35 0 -52 -31 -52 -54c0 -56 41 -73 138 -117c138 -62 174 -126 174 -212c0 -108 -63 -227 -259 -227c-183 0 -260 120 -260 228v31h188c0 -53 19 -101 75 -101c48 0 67 40 67 62
c0 48 -22 71 -145 118c-69 26 -167 80 -167 212c0 138 113 218 245 218c73 0 129 -25 163 -50v36h480v-166z" />
    <glyph glyph-name="S_T.alt01" unicode="&#xe18e;" horiz-adv-x="889" 
d="M880 574h-145v-574h-189v161h-2c-22 -86 -94 -175 -252 -175c-214 0 -257 140 -257 235v24h188c0 -82 39 -101 72 -101c41 0 67 30 67 64c0 47 -39 77 -127 116c-51 23 -182 60 -182 209c0 132 103 207 256 207h64v-166h-55c-43 0 -76 -13 -76 -49c0 -40 35 -57 135 -100
c120 -51 160 -110 169 -168v317h-141v166h475v-166z" />
    <glyph glyph-name="T_H" unicode="&#xe196;" horiz-adv-x="1040" 
d="M973 0h-189v286h-242v-286h-189v740h311v-166h-122v-121h242v287h189v-740zM322 0h-189v574h-124v166h313v-740z" />
    <glyph glyph-name="T_T" unicode="&#xe198;" horiz-adv-x="878" 
d="M869 574h-145v-574h-189v574h-190v-574h-189v574h-146v166h859v-166z" />
    <glyph glyph-name="T_T.alt01" unicode="&#xe199;" horiz-adv-x="719" 
d="M710 574h-145v-574h-189v740h334v-166zM345 0h-189v574h-146v166h335v-740z" />
    <glyph glyph-name="T_U" unicode="&#xe19a;" horiz-adv-x="986" 
d="M921 293c0 -109 -13 -161 -74 -228c-61 -66 -159 -79 -213 -79c-92 0 -159 31 -207 80c-47 48 -74 103 -74 227v447h301v-166h-112v-281c0 -59 0 -141 94 -141c93 0 96 91 96 141v447h189v-447zM322 0h-189v574h-124v166h313v-740z" />
    <glyph glyph-name="T_h" unicode="&#xe1a5;" horiz-adv-x="1060" 
d="M1002 0h-166v302c0 27 0 116 -89 116c-93 0 -93 -83 -93 -110v-308h-166v574h-143v-574h-189v574h-146v166h644v-236h2c28 50 84 70 143 70c53 0 116 -19 151 -61c47 -55 52 -104 52 -203v-310z" />
    <glyph glyph-name="U_T" unicode="&#xe1a9;" horiz-adv-x="986" 
d="M977 574h-124v-574h-189v740h313v-166zM633 293c0 -124 -27 -179 -74 -227c-48 -49 -115 -80 -207 -80c-54 0 -152 13 -213 79c-61 67 -74 119 -74 228v447h189v-447c0 -50 3 -141 96 -141c94 0 94 82 94 141v281h-112v166h301v-447z" />
    <glyph glyph-name="c_t" unicode="&#xe1b8;" horiz-adv-x="791" 
d="M779 429h-80v-429h-166v429h-82v126h82v185h166v-185h80v-126zM502 32c-46 -31 -108 -50 -172 -50c-187 0 -297 136 -297 282c0 213 158 291 306 291h81v-126h-62c-80 0 -158 -54 -158 -151c0 -96 73 -156 161 -156c60 0 99 24 141 60v-150z" />
    <glyph glyph-name="o_o" unicode="&#xe1c1;" horiz-adv-x="1037" 
d="M1003 278c0 -136 -97 -295 -299 -295c-77 0 -139 23 -185 59c-47 -36 -109 -59 -186 -59c-202 0 -299 159 -299 295s97 295 299 295c77 0 139 -23 185 -59c47 36 109 59 186 59c202 0 299 -159 299 -295zM837 278c0 81 -61 140 -133 140c-34 0 -66 -14 -90 -36
c12 -35 18 -70 18 -104s-6 -69 -18 -104c24 -22 56 -36 90 -36c72 0 133 59 133 140zM423 174c-12 35 -18 70 -18 104s6 69 18 104c-24 22 -56 36 -90 36c-72 0 -133 -59 -133 -140s61 -140 133 -140c34 0 66 14 90 36z" />
    <glyph glyph-name="s_s" unicode="&#xe1c3;" horiz-adv-x="763" 
d="M740 165c0 -124 -107 -184 -212 -184c-61 0 -107 10 -146 33c-38 -21 -78 -33 -135 -33c-119 0 -214 70 -223 184h165c2 -22 20 -51 61 -51c39 0 60 20 60 43c0 42 -45 53 -131 83c-74 26 -148 66 -148 169c0 109 111 165 211 165c51 0 100 -9 138 -37
c35 26 86 37 133 37c94 0 201 -49 210 -175h-163c-1 27 -18 42 -52 42c-36 0 -47 -21 -47 -39c0 -27 39 -47 94 -61c110 -29 185 -67 185 -176zM574 158c0 32 -29 46 -63 58c-14 5 -31 10 -48 17c11 -19 13 -41 13 -67c0 -13 -1 -26 -5 -38c12 -9 28 -14 44 -14
c42 0 59 25 59 44zM308 336c-8 17 -13 35 -13 56c0 3 1 9 1 12c0 10 -9 37 -49 37c-41 0 -50 -22 -50 -38c0 -24 27 -40 66 -53c10 -3 33 -10 45 -14z" />
    <glyph glyph-name="s_t" unicode="&#xe1c4;" horiz-adv-x="772" 
d="M760 429h-80v-429h-166v429h-54c2 -9 4 -19 5 -30h-163c-1 12 -3 42 -52 42c-35 0 -47 -22 -47 -37c0 -30 41 -48 85 -60c94 -27 188 -54 188 -174c0 -117 -103 -189 -226 -189c-84 0 -211 38 -226 184h165c7 -51 56 -51 63 -51c28 0 58 16 58 43c0 43 -34 51 -141 89
c-71 26 -132 70 -132 158c0 104 92 170 215 170c53 0 134 -15 180 -80v61h82v185h166v-185h80v-126z" />
    <glyph glyph-name="s_t.alt01" unicode="&#xe1cc;" horiz-adv-x="731" 
d="M719 429h-80v-429h-166v129h-2c-20 -91 -110 -148 -221 -148c-84 0 -211 38 -226 184h165c7 -51 56 -51 68 -51c27 0 53 16 53 43c0 43 -40 43 -147 81c-68 25 -132 67 -132 149c0 108 83 168 215 168h114v-126h-116c-35 0 -47 -22 -47 -37c0 -30 41 -40 85 -52
c99 -28 172 -48 189 -130h2v219h-82v126h82v185h166v-185h80v-126z" />
    <glyph glyph-name="t_t" unicode="&#xe1d4;" horiz-adv-x="660" 
d="M648 429h-80v-429h-166v429h-143v-429h-166v429h-82v126h82v185h166v-185h143v185h166v-185h80v-126z" />
    <glyph glyph-name="t_t.alt01" unicode="&#xe1d6;" horiz-adv-x="548" 
d="M536 429h-80v-429h-166v740h166v-185h80v-126zM259 0h-166v429h-82v126h82v185h166v-740z" />
    <glyph glyph-name="zero.numerator" unicode="&#xe1da;" horiz-adv-x="404" 
d="M382 459c0 -98 -79 -172 -178 -172c-103 0 -182 74 -182 172v119c0 96 80 171 181 171c100 0 179 -75 179 -171v-119zM254 457v123c0 32 -11 61 -52 61s-52 -29 -52 -61v-123c0 -32 14 -62 52 -62s52 30 52 62z" />
    <glyph glyph-name="one.numerator" unicode="&#xe1db;" horiz-adv-x="289" 
d="M221 296h-123v338h-78v106h201v-444z" />
    <glyph glyph-name="two.numerator" unicode="&#xe1dc;" horiz-adv-x="407" 
d="M376 296h-341v97c47 30 134 82 176 142c15 21 24 43 24 66s-9 41 -35 41c-37 0 -46 -38 -47 -68h-123c1 39 6 73 29 106c34 48 93 69 150 69c77 0 165 -43 165 -131c0 -49 -25 -94 -60 -133c-28 -31 -62 -59 -91 -81v-2h153v-106z" />
    <glyph glyph-name="three.numerator" unicode="&#xe1dd;" horiz-adv-x="407" 
d="M379 428c0 -91 -99 -141 -179 -141c-52 0 -118 18 -150 62c-19 26 -25 52 -28 84h129c7 -27 21 -38 50 -38c28 0 48 13 48 43c0 34 -35 39 -67 39c-14 0 -28 -1 -37 -1v90h18c30 0 66 3 66 42c0 20 -12 33 -32 33c-25 0 -35 -12 -36 -35h-126c1 96 78 143 166 143
c72 0 152 -42 152 -123c0 -40 -22 -73 -57 -92c47 -15 83 -55 83 -106z" />
    <glyph glyph-name="four.numerator" unicode="&#xe1de;" horiz-adv-x="420" 
d="M400 373h-52v-77h-123v77h-209v86l214 281h118v-273h52v-94zM227 467v121h-2l-82 -121h84z" />
    <glyph glyph-name="five.numerator" unicode="&#xe1df;" horiz-adv-x="410" 
d="M389 451c0 -97 -77 -164 -182 -164c-93 0 -166 53 -184 141h125c8 -17 24 -33 54 -33c36 0 57 23 57 53c0 27 -17 48 -56 48c-24 0 -44 -9 -59 -27l-101 24l37 247h267v-106h-168l-9 -53c14 9 43 14 62 14c92 0 157 -56 157 -144z" />
    <glyph glyph-name="six.numerator" unicode="&#xe1e0;" horiz-adv-x="420" 
d="M401 459c0 -98 -83 -172 -188 -172c-110 0 -190 70 -190 175c0 42 19 85 46 122l117 156h148l-109 -132h1c6 3 16 4 21 4c95 0 154 -74 154 -153zM270 452c0 34 -26 57 -61 57c-33 0 -58 -23 -58 -55c0 -34 24 -58 58 -58s61 21 61 56z" />
    <glyph glyph-name="seven.numerator" unicode="&#xe1e1;" horiz-adv-x="359" 
d="M333 645l-166 -349h-139l170 338h-181v106h316v-95z" />
    <glyph glyph-name="eight.numerator" unicode="&#xe1e2;" horiz-adv-x="422" 
d="M394 432c0 -88 -84 -145 -182 -145s-184 57 -184 145c0 45 25 88 69 111c-26 19 -41 46 -41 78c0 78 72 128 155 128c82 0 155 -50 155 -128c0 -32 -15 -62 -41 -81c48 -26 69 -63 69 -108zM263 442c0 32 -20 52 -52 52s-52 -20 -52 -52s21 -51 54 -51c30 0 50 22 50 51z
M252 619c0 20 -15 36 -40 36s-42 -16 -42 -39c0 -20 18 -35 40 -35c26 0 42 17 42 38z" />
    <glyph glyph-name="nine.numerator" unicode="&#xe1e3;" horiz-adv-x="420" 
d="M397 574c0 -42 -19 -85 -46 -122l-117 -156h-148l110 134l-1 1c-6 -4 -16 -5 -23 -5c-98 0 -153 72 -153 151c0 98 82 172 188 172c108 0 190 -69 190 -175zM150 584c0 -34 25 -57 61 -57c33 0 58 23 58 55c0 34 -24 58 -58 58s-61 -21 -61 -56z" />
    <glyph glyph-name="zero.denominator" unicode="&#xe1e4;" horiz-adv-x="404" 
d="M382 163c0 -98 -79 -172 -178 -172c-103 0 -182 74 -182 172v119c0 96 80 171 181 171c100 0 179 -75 179 -171v-119zM254 161v123c0 32 -11 61 -52 61s-52 -29 -52 -61v-123c0 -32 14 -62 52 -62s52 30 52 62z" />
    <glyph glyph-name="one.denominator" unicode="&#xe1e5;" horiz-adv-x="289" 
d="M221 0h-123v338h-78v106h201v-444z" />
    <glyph glyph-name="two.denominator" unicode="&#xe1e6;" horiz-adv-x="407" 
d="M376 0h-341v97c47 30 134 82 176 142c15 21 24 43 24 66s-9 41 -35 41c-37 0 -46 -38 -47 -68h-123c1 39 6 73 29 106c34 48 93 69 150 69c77 0 165 -43 165 -131c0 -49 -25 -94 -60 -133c-28 -31 -62 -59 -91 -81v-2h153v-106z" />
    <glyph glyph-name="three.denominator" unicode="&#xe1e7;" horiz-adv-x="407" 
d="M379 132c0 -91 -99 -141 -179 -141c-52 0 -118 18 -150 62c-19 26 -25 52 -28 84h129c7 -27 21 -38 50 -38c28 0 48 13 48 43c0 34 -35 39 -67 39c-14 0 -28 -1 -37 -1v90h18c30 0 66 3 66 42c0 20 -12 33 -32 33c-25 0 -35 -12 -36 -35h-126c1 96 78 143 166 143
c72 0 152 -42 152 -123c0 -40 -22 -73 -57 -92c47 -15 83 -55 83 -106z" />
    <glyph glyph-name="four.denominator" unicode="&#xe1e8;" horiz-adv-x="420" 
d="M400 77h-52v-77h-123v77h-209v86l214 281h118v-273h52v-94zM227 171v121h-2l-82 -121h84z" />
    <glyph glyph-name="five.denominator" unicode="&#xe1e9;" horiz-adv-x="410" 
d="M389 155c0 -97 -77 -164 -182 -164c-93 0 -166 53 -184 141h125c8 -17 24 -33 54 -33c36 0 57 23 57 53c0 27 -17 48 -56 48c-24 0 -44 -9 -59 -27l-101 24l37 247h267v-106h-168l-9 -53c14 9 43 14 62 14c92 0 157 -56 157 -144z" />
    <glyph glyph-name="six.denominator" unicode="&#xe1ea;" horiz-adv-x="420" 
d="M401 163c0 -98 -83 -172 -188 -172c-110 0 -190 70 -190 175c0 42 19 85 46 122l117 156h148l-109 -132h1c6 3 16 4 21 4c95 0 154 -74 154 -153zM270 156c0 34 -26 57 -61 57c-33 0 -58 -23 -58 -55c0 -34 24 -58 58 -58s61 21 61 56z" />
    <glyph glyph-name="seven.denominator" unicode="&#xe1eb;" horiz-adv-x="359" 
d="M333 349l-166 -349h-139l170 338h-181v106h316v-95z" />
    <glyph glyph-name="eight.denominator" unicode="&#xe1ec;" horiz-adv-x="422" 
d="M394 136c0 -88 -84 -145 -182 -145s-184 57 -184 145c0 45 25 88 69 111c-26 19 -41 46 -41 78c0 78 72 128 155 128c82 0 155 -50 155 -128c0 -32 -15 -62 -41 -81c48 -26 69 -63 69 -108zM263 146c0 32 -20 52 -52 52s-52 -20 -52 -52s21 -51 54 -51c30 0 50 22 50 51z
M252 323c0 20 -15 36 -40 36s-42 -16 -42 -39c0 -20 18 -35 40 -35c26 0 42 17 42 38z" />
    <glyph glyph-name="nine.denominator" unicode="&#xe1ed;" horiz-adv-x="420" 
d="M397 278c0 -42 -19 -85 -46 -122l-117 -156h-148l110 134l-1 1c-6 -4 -16 -5 -23 -5c-98 0 -153 72 -153 151c0 98 82 172 188 172c108 0 190 -69 190 -175zM150 288c0 -34 25 -57 61 -57c33 0 58 23 58 55c0 34 -24 58 -58 58s-61 -21 -61 -56z" />
    <glyph glyph-name="zero.superior" unicode="&#xe1ee;" horiz-adv-x="404" 
d="M382 585c0 -98 -79 -172 -178 -172c-103 0 -182 74 -182 172v119c0 96 80 171 181 171c100 0 179 -75 179 -171v-119zM254 583v123c0 32 -11 61 -52 61s-52 -29 -52 -61v-123c0 -32 14 -62 52 -62s52 30 52 62z" />
    <glyph glyph-name="four.superior" unicode="&#xe1ef;" horiz-adv-x="420" 
d="M400 499h-52v-77h-123v77h-209v86l214 281h118v-273h52v-94zM227 593v121h-2l-82 -121h84z" />
    <glyph glyph-name="five.superior" unicode="&#xe1f0;" horiz-adv-x="410" 
d="M389 577c0 -97 -77 -164 -182 -164c-93 0 -166 53 -184 141h125c8 -17 24 -33 54 -33c36 0 57 23 57 53c0 27 -17 48 -56 48c-24 0 -44 -9 -59 -27l-101 24l37 247h267v-106h-168l-9 -53c14 9 43 14 62 14c92 0 157 -56 157 -144z" />
    <glyph glyph-name="six.superior" unicode="&#xe1f1;" horiz-adv-x="420" 
d="M401 585c0 -98 -83 -172 -188 -172c-110 0 -190 70 -190 175c0 42 19 85 46 122l117 156h148l-109 -132h1c6 3 16 4 21 4c95 0 154 -74 154 -153zM270 578c0 34 -26 57 -61 57c-33 0 -58 -23 -58 -55c0 -34 24 -58 58 -58s61 21 61 56z" />
    <glyph glyph-name="seven.superior" unicode="&#xe1f2;" horiz-adv-x="359" 
d="M333 771l-166 -349h-139l170 338h-181v106h316v-95z" />
    <glyph glyph-name="eight.superior" unicode="&#xe1f3;" horiz-adv-x="422" 
d="M394 558c0 -88 -84 -145 -182 -145s-184 57 -184 145c0 45 25 88 69 111c-26 19 -41 46 -41 78c0 78 72 128 155 128c82 0 155 -50 155 -128c0 -32 -15 -62 -41 -81c48 -26 69 -63 69 -108zM263 568c0 32 -20 52 -52 52s-52 -20 -52 -52s21 -51 54 -51c30 0 50 22 50 51z
M252 745c0 20 -15 36 -40 36s-42 -16 -42 -39c0 -20 18 -35 40 -35c26 0 42 17 42 38z" />
    <glyph glyph-name="nine.superior" unicode="&#xe1f4;" horiz-adv-x="420" 
d="M397 700c0 -42 -19 -85 -46 -122l-117 -156h-148l110 134l-1 1c-6 -4 -16 -5 -23 -5c-98 0 -153 72 -153 151c0 98 82 172 188 172c108 0 190 -69 190 -175zM150 710c0 -34 25 -57 61 -57c33 0 58 23 58 55c0 34 -24 58 -58 58s-61 -21 -61 -56z" />
    <glyph glyph-name="zero.inferior" unicode="&#xe1f5;" horiz-adv-x="404" 
d="M382 41c0 -98 -79 -172 -178 -172c-103 0 -182 74 -182 172v119c0 96 80 171 181 171c100 0 179 -75 179 -171v-119zM254 39v123c0 32 -11 61 -52 61s-52 -29 -52 -61v-123c0 -32 14 -62 52 -62s52 30 52 62z" />
    <glyph glyph-name="one.inferior" unicode="&#xe1f6;" horiz-adv-x="289" 
d="M221 -122h-123v338h-78v106h201v-444z" />
    <glyph glyph-name="two.inferior" unicode="&#xe1f7;" horiz-adv-x="407" 
d="M376 -122h-341v97c47 30 134 82 176 142c15 21 24 43 24 66s-9 41 -35 41c-37 0 -46 -38 -47 -68h-123c1 39 6 73 29 106c34 48 93 69 150 69c77 0 165 -43 165 -131c0 -49 -25 -94 -60 -133c-28 -31 -62 -59 -91 -81v-2h153v-106z" />
    <glyph glyph-name="three.inferior" unicode="&#xe1f8;" horiz-adv-x="407" 
d="M379 10c0 -91 -99 -141 -179 -141c-52 0 -118 18 -150 62c-19 26 -25 52 -28 84h129c7 -27 21 -38 50 -38c28 0 48 13 48 43c0 34 -35 39 -67 39c-14 0 -28 -1 -37 -1v90h18c30 0 66 3 66 42c0 20 -12 33 -32 33c-25 0 -35 -12 -36 -35h-126c1 96 78 143 166 143
c72 0 152 -42 152 -123c0 -40 -22 -73 -57 -92c47 -15 83 -55 83 -106z" />
    <glyph glyph-name="four.inferior" unicode="&#xe1f9;" horiz-adv-x="420" 
d="M400 -45h-52v-77h-123v77h-209v86l214 281h118v-273h52v-94zM227 49v121h-2l-82 -121h84z" />
    <glyph glyph-name="five.inferior" unicode="&#xe1fa;" horiz-adv-x="410" 
d="M389 33c0 -97 -77 -164 -182 -164c-93 0 -166 53 -184 141h125c8 -17 24 -33 54 -33c36 0 57 23 57 53c0 27 -17 48 -56 48c-24 0 -44 -9 -59 -27l-101 24l37 247h267v-106h-168l-9 -53c14 9 43 14 62 14c92 0 157 -56 157 -144z" />
    <glyph glyph-name="six.inferior" unicode="&#xe1fb;" horiz-adv-x="420" 
d="M401 41c0 -98 -83 -172 -188 -172c-110 0 -190 70 -190 175c0 42 19 85 46 122l117 156h148l-109 -132h1c6 3 16 4 21 4c95 0 154 -74 154 -153zM270 34c0 34 -26 57 -61 57c-33 0 -58 -23 -58 -55c0 -34 24 -58 58 -58s61 21 61 56z" />
    <glyph glyph-name="seven.inferior" unicode="&#xe1fc;" horiz-adv-x="359" 
d="M333 227l-166 -349h-139l170 338h-181v106h316v-95z" />
    <glyph glyph-name="eight.inferior" unicode="&#xe1fd;" horiz-adv-x="422" 
d="M394 14c0 -88 -84 -145 -182 -145s-184 57 -184 145c0 45 25 88 69 111c-26 19 -41 46 -41 78c0 78 72 128 155 128c82 0 155 -50 155 -128c0 -32 -15 -62 -41 -81c48 -26 69 -63 69 -108zM263 24c0 32 -20 52 -52 52s-52 -20 -52 -52s21 -51 54 -51c30 0 50 22 50 51z
M252 201c0 20 -15 36 -40 36s-42 -16 -42 -39c0 -20 18 -35 40 -35c26 0 42 17 42 38z" />
    <glyph glyph-name="nine.inferior" unicode="&#xe1fe;" horiz-adv-x="420" 
d="M397 156c0 -42 -19 -85 -46 -122l-117 -156h-148l110 134l-1 1c-6 -4 -16 -5 -23 -5c-98 0 -153 72 -153 151c0 98 82 172 188 172c108 0 190 -69 190 -175zM150 166c0 -34 25 -57 61 -57c33 0 58 23 58 55c0 34 -24 58 -58 58s-61 -21 -61 -56z" />
    <glyph glyph-name="zero.fitted" unicode="&#xe1ff;" horiz-adv-x="628" 
d="M590 267c0 -111 -47 -206 -151 -254c-38 -18 -80 -27 -122 -27c-39 0 -77 8 -113 23c-110 46 -166 140 -166 258v206c0 119 55 214 167 259c36 14 74 22 112 22s78 -9 113 -24c108 -47 160 -141 160 -257v-206zM401 262v216c0 58 -19 110 -87 110c-65 0 -87 -54 -87 -110
v-216c0 -57 22 -110 87 -110c68 0 87 52 87 110z" />
    <glyph glyph-name="one.fitted" unicode="&#xe200;" horiz-adv-x="426" 
d="M336 0h-189v581h-121v159h310v-740z" />
    <glyph glyph-name="two.fitted" unicode="&#xe201;" horiz-adv-x="618" 
d="M573 0h-522v147c83 54 159 106 226 180c43 47 102 123 102 189c0 42 -27 72 -70 72c-68 0 -82 -62 -85 -117h-180c2 63 9 116 44 170c50 77 138 113 228 113c96 0 190 -40 233 -130c12 -27 19 -56 19 -85c0 -160 -135 -283 -246 -380h251v-159z" />
    <glyph glyph-name="three.fitted" unicode="&#xe202;" horiz-adv-x="618" 
d="M579 218c0 -143 -143 -232 -274 -232c-83 0 -183 32 -231 104c-27 41 -36 83 -41 131h191c10 -45 39 -69 86 -69c51 0 80 33 80 83c0 88 -107 75 -166 75v139c54 0 125 -2 125 74c0 32 -15 65 -52 65c-42 0 -57 -26 -58 -64h-186c2 147 114 230 253 230
c117 0 232 -75 232 -202c0 -74 -35 -121 -98 -155c85 -29 139 -88 139 -179z" />
    <glyph glyph-name="four.fitted" unicode="&#xe203;" horiz-adv-x="639" 
d="M609 130h-82v-130h-181v130h-326v138l331 472h176v-462h82v-148zM358 278v232h-2l-146 -232h148z" />
    <glyph glyph-name="five.fitted" unicode="&#xe204;" horiz-adv-x="621" 
d="M586 254c0 -36 -8 -72 -22 -104c-47 -109 -146 -165 -262 -165c-135 0 -256 75 -282 213h190c21 -29 51 -46 87 -46c54 0 100 44 100 98c0 58 -45 97 -101 97c-46 0 -79 -22 -97 -64l-153 38l64 419h409v-159h-264l-16 -101c33 18 63 22 100 22c104 0 187 -53 227 -149
c13 -31 20 -65 20 -99z" />
    <glyph glyph-name="six.fitted" unicode="&#xe205;" horiz-adv-x="637" 
d="M609 268c0 -163 -125 -282 -287 -282c-168 0 -292 115 -292 286c0 72 28 139 68 198l184 270h219l-163 -223l2 -2c11 4 24 4 36 4c140 0 233 -116 233 -251zM420 252c0 59 -46 101 -104 101c-56 0 -100 -42 -100 -98c0 -57 42 -103 100 -103c57 0 104 42 104 100z" />
    <glyph glyph-name="seven.fitted" unicode="&#xe206;" horiz-adv-x="546" 
d="M512 595l-260 -595h-208l273 581h-287v159h482v-145z" />
    <glyph glyph-name="eight.fitted" unicode="&#xe207;" horiz-adv-x="624" 
d="M582 220c0 -144 -136 -234 -269 -234s-271 90 -271 234c0 82 39 154 116 187c-47 36 -72 79 -72 139c0 127 105 208 226 208c119 0 226 -80 226 -206c0 -62 -25 -104 -72 -141c78 -33 116 -105 116 -187zM380 535c0 36 -31 66 -67 66c-38 0 -69 -30 -69 -68
c0 -39 28 -68 67 -68s69 32 69 70zM393 236c0 46 -34 85 -81 85c-48 0 -81 -37 -81 -84c0 -48 35 -85 84 -85c45 0 78 41 78 84z" />
    <glyph glyph-name="nine.fitted" unicode="&#xe208;" horiz-adv-x="640" 
d="M610 476c0 -77 -28 -142 -71 -205l-184 -271h-219l163 224l-2 2c-11 -4 -25 -4 -36 -4c-34 0 -68 9 -98 24c-89 44 -135 130 -135 227c0 164 125 281 287 281c87 0 175 -31 233 -97c45 -51 62 -115 62 -181zM421 486c0 58 -44 102 -102 102c-56 0 -102 -42 -102 -99
c0 -58 44 -101 102 -101c56 0 102 40 102 98z" />
    <glyph glyph-name="parenleft.cap" unicode="&#xe209;" horiz-adv-x="473" 
d="M430 -179c-220 83 -365 272 -365 509c0 238 146 426 365 509v-174c-115 -64 -180 -209 -180 -337c0 -127 65 -271 180 -334v-173z" />
    <glyph glyph-name="parenright.cap" unicode="&#xe20a;" horiz-adv-x="473" 
d="M408 329c0 -237 -145 -426 -365 -508v173c115 64 180 209 180 337c0 127 -65 271 -180 334v174c219 -83 365 -272 365 -510z" />
    <glyph glyph-name="bracketleft.cap" unicode="&#xe20b;" horiz-adv-x="473" 
d="M401 -179c-69 4 -129 20 -186 60c-89 63 -111 152 -111 255v388c0 104 22 190 111 255c58 42 117 56 186 60v-174c-88 -4 -109 -56 -109 -134v-402c0 -78 21 -130 109 -134v-174z" />
    <glyph glyph-name="bracketright.cap" unicode="&#xe20c;" horiz-adv-x="473" 
d="M369 136c0 -104 -22 -190 -111 -255c-58 -42 -117 -56 -186 -60v174c88 4 109 56 109 134v402c0 78 -21 130 -109 134v174c69 -4 129 -20 186 -60c89 -63 111 -152 111 -255v-388z" />
    <glyph glyph-name="braceleft.cap" unicode="&#xe20d;" horiz-adv-x="554" 
d="M483 -179h-128c-85 0 -153 48 -153 138v212c0 49 -58 61 -97 61v172c42 0 97 16 97 67v216c0 90 68 138 153 138h128v-126c-60 0 -113 12 -113 -65v-209c0 -74 -41 -100 -108 -105v-4c54 -3 108 -31 108 -92v-212c0 -77 53 -65 113 -65v-126z" />
    <glyph glyph-name="braceright.cap" unicode="&#xe20e;" horiz-adv-x="554" 
d="M449 232c-39 0 -97 -12 -97 -61v-212c0 -90 -68 -138 -153 -138h-128v126c60 0 113 -12 113 65v212c0 61 54 89 108 92v4c-67 5 -108 31 -108 105v209c0 77 -53 65 -113 65v126h128c85 0 153 -48 153 -138v-216c0 -51 55 -67 97 -67v-172z" />
    <glyph glyph-name="guilsinglleft.cap" unicode="&#xe20f;" horiz-adv-x="222" 
d="M175 193l-128 127v114l128 130v-140l-51 -45l51 -47v-139z" />
    <glyph glyph-name="guilsinglright.cap" unicode="&#xe210;" horiz-adv-x="222" 
d="M175 320l-128 -127v140l51 45l-51 47v139l128 -131v-113z" />
    <glyph glyph-name="guillemotleft.cap" unicode="&#xe211;" horiz-adv-x="422" 
d="M375 193l-129 127v114l129 130v-140l-51 -45l51 -47v-139zM176 193l-129 127v114l129 130v-140l-51 -45l51 -47v-139z" />
    <glyph glyph-name="guillemotright.cap" unicode="&#xe212;" horiz-adv-x="422" 
d="M375 320l-129 -127v140l52 45l-52 47v139l129 -131v-113zM176 320l-129 -127v140l51 45l-51 47v139l129 -131v-113z" />
    <glyph glyph-name="hyphen.cap" unicode="&#xe213;" horiz-adv-x="281" 
d="M281 297h-281v163h281v-163z" />
    <glyph glyph-name="endash.cap" unicode="&#xe214;" horiz-adv-x="500" 
d="M465 297h-430v163h430v-163z" />
    <glyph glyph-name="emdash.cap" unicode="&#xe215;" horiz-adv-x="1000" 
d="M965 297h-930v163h930v-163z" />
    <glyph glyph-name="exclamdown.cap" unicode="&#xe216;" horiz-adv-x="333" 
d="M82 496h171v-496h-171v496zM82 740h171v-170h-171v170z" />
    <glyph glyph-name="questiondown.cap" unicode="&#xe217;" horiz-adv-x="592" 
d="M41 198c0 162 181 205 190 307h174c-2 -138 -172 -191 -172 -286c0 -38 19 -62 58 -62c61 0 68 47 69 96h183c1 -6 1 -12 1 -18c0 -150 -117 -249 -263 -249c-89 0 -173 39 -216 120c-15 28 -24 60 -24 92zM231 740h174v-170h-174v170z" />
    <glyph glyph-name="periodcentered.cap" unicode="&#xe218;" horiz-adv-x="314" 
d="M244 292h-173v170h173v-170z" />
    </font>
</defs>
</svg>
