<?xml version="1.0" standalone="no"?>
<!DOCTYPE svg PUBLIC "-//W3C//DTD SVG 1.1//EN" "http://www.w3.org/Graphics/SVG/1.1/DTD/svg11.dtd" >
<svg xmlns="http://www.w3.org/2000/svg" xmlns:xlink="http://www.w3.org/1999/xlink" version="1.1">
<metadata>
Created by FontForge 20170731 at Tue Mar 20 16:26:16 2007
 By Aleksey,,,
Copyright (c) Feliciano Type Foundry, 2004. All rights reserved.
</metadata>
<defs>
<font id="Flama" horiz-adv-x="500" >
  <font-face 
    font-family="Flama"
    font-weight="500"
    font-stretch="normal"
    units-per-em="1000"
    panose-1="0 0 0 0 0 0 0 0 0 0"
    ascent="800"
    descent="-200"
    x-height="506"
    cap-height="713"
    bbox="-37 -202 1054 965"
    underline-thickness="20"
    underline-position="-140"
    unicode-range="U+0020-FB02"
  />
<missing-glyph horiz-adv-x="1000" 
 />
    <glyph glyph-name=".notdef" horiz-adv-x="1000" 
 />
    <glyph glyph-name=".null" horiz-adv-x="0" 
 />
    <glyph glyph-name="nonmarkingreturn" horiz-adv-x="333" 
 />
    <glyph glyph-name="space" unicode=" " horiz-adv-x="240" 
 />
    <glyph glyph-name="exclam" unicode="!" horiz-adv-x="280" 
d="M190 506l-20 -293h-60l-20 293v207h100v-207zM191 0h-102v131h102v-131z" />
    <glyph glyph-name="quotedbl" unicode="&#x22;" horiz-adv-x="400" 
d="M326 613l-17 -135h-58l-17 135v103h92v-103zM165 613l-17 -135h-58l-17 135v103h92v-103z" />
    <glyph glyph-name="numbersign" unicode="#" horiz-adv-x="571" 
d="M532 461l-10 -57h-92l-33 -191h93l-9 -57h-93l-30 -168h-55l29 168h-148l-29 -168h-55l29 168h-93l10 57h93l33 191h-94l10 57h93l27 155h55l-26 -155h147l27 155h55l-27 -155h93zM375 404h-148l-33 -191h148z" />
    <glyph glyph-name="dollar" unicode="$" horiz-adv-x="526" 
d="M487 232q0 -74 -50 -120.5t-128 -56.5v-83h-68v82q-76 6 -128.5 46.5t-70.5 109.5l87 25q32 -103 142 -103q51 0 88 23.5t37 68.5q0 31 -18 49t-52 31q-17 6 -54 16t-46 13q-70 21 -110 56t-40 103q0 72 46 115.5t119 51.5v71h68v-71q132 -14 167 -126l-80 -28
q-17 39 -45.5 59t-80.5 20q-43 0 -73.5 -23t-30.5 -62q0 -53 79 -77q100 -28 135 -44q107 -48 107 -146z" />
    <glyph glyph-name="percent" unicode="%" horiz-adv-x="789" 
d="M724 109q0 -58 -40 -89t-98 -31q-59 0 -96.5 30.5t-37.5 90.5v133q0 62 38.5 93.5t96.5 31.5q59 0 98 -31.5t39 -93.5v-134zM675 726l-477 -737h-79l479 737h77zM336 468q0 -58 -40 -89t-97 -31q-59 0 -96.5 30.5t-37.5 90.5v133q0 62 38 93t97 31t97.5 -31t38.5 -93
v-134zM653 109v140q0 63 -65 63t-65 -63v-140q0 -62 63 -62q67 0 67 62zM265 468v140q0 63 -65 63t-65 -63v-141q0 -62 63 -62q67 0 67 63z" />
    <glyph glyph-name="ampersand" unicode="&#x26;" horiz-adv-x="752" 
d="M732 0h-129l-79 83q-93 -96 -238 -96q-107 0 -171.5 56t-64.5 142q0 64 45 122t136 92q-89 93 -89 155q0 68 56 120t166 52q90 0 142 -47t52 -111q0 -69 -53.5 -117.5t-125.5 -70.5l156 -168q29 54 47 116l76 -8q-26 -98 -68 -167zM469 566q0 42 -32 65t-74 23
q-55 0 -84 -26t-29 -68q0 -34 52 -95q20 -22 31 -34q136 37 136 135zM474 137l-197 213q-58 -20 -89 -65t-31 -93q0 -59 41.5 -94.5t107.5 -35.5q101 0 168 75z" />
    <glyph glyph-name="quotesingle" unicode="'" horiz-adv-x="239" 
d="M165 613l-17 -135h-58l-17 135v103h92v-103z" />
    <glyph glyph-name="parenleft" unicode="(" horiz-adv-x="356" 
d="M338 -200h-61q-75 94 -120 235t-45 263q0 121 46.5 249t117.5 226h62q-125 -256 -125 -475q0 -232 125 -498z" />
    <glyph glyph-name="parenright" unicode=")" horiz-adv-x="356" 
d="M244 298q0 -122 -45 -263t-120 -235h-61q125 266 125 498q0 220 -125 476h62q71 -98 117.5 -226.5t46.5 -249.5z" />
    <glyph glyph-name="asterisk" unicode="*" horiz-adv-x="427" 
d="M389 624l-119 -67l79 -115l-51 -33l-84 121l-84 -121l-51 33l77 115l-118 67l31 51l114 -64v125h61v-125l113 64z" />
    <glyph glyph-name="plus" unicode="+" horiz-adv-x="597" 
d="M526 288h-196v-198h-62v198h-197v59h197v198h62v-198h196v-59z" />
    <glyph glyph-name="comma" unicode="," horiz-adv-x="242" 
d="M172 5l-43 -112h-53l27 110h-33v128h102v-126z" />
    <glyph glyph-name="hyphen" unicode="-" horiz-adv-x="364" 
d="M323 233h-282v78h282v-78z" />
    <glyph glyph-name="period" unicode="." horiz-adv-x="242" 
d="M172 0h-102v131h102v-131z" />
    <glyph glyph-name="slash" unicode="/" horiz-adv-x="341" 
d="M327 727l-242 -764h-72l245 764h69z" />
    <glyph glyph-name="zero" unicode="0" horiz-adv-x="578" 
d="M521 199q0 -97 -67 -154t-165 -57q-99 0 -165.5 53t-66.5 154v316q0 101 68 157.5t167 56.5q100 0 164.5 -56t64.5 -157v-313zM423 202v311q0 58 -34 95.5t-97 37.5q-64 0 -100 -38.5t-36 -98.5v-308q0 -58 35.5 -96.5t98.5 -38.5q62 0 97.5 39.5t35.5 96.5z" />
    <glyph glyph-name="one" unicode="1" horiz-adv-x="555" 
d="M487 0h-421v73h167v551l-154 -19l-6 70l211 40h44v-642h159v-73z" />
    <glyph glyph-name="two" unicode="2" horiz-adv-x="556" 
d="M491 0h-413v60l129 152l119 144q58 70 58 154v31q0 50 -29.5 78.5t-85.5 28.5q-54 0 -85.5 -27t-31.5 -75v-18h-90v20q0 85 58.5 131t156.5 46q97 0 150 -54t53 -141q0 -23 -2.5 -44t-9.5 -42t-11.5 -36t-18.5 -37t-19.5 -32t-25 -34t-25 -31t-29 -33.5t-28.5 -32.5
l-108 -124v-3h288v-81z" />
    <glyph glyph-name="three" unicode="3" horiz-adv-x="565" 
d="M513 201q0 -99 -66.5 -156t-166.5 -57q-106 0 -159.5 47.5t-53.5 117.5v26h92v-20q0 -46 36 -69.5t90 -23.5q56 0 90.5 35.5t34.5 97.5q0 39 -14.5 67.5t-37 41.5t-42.5 19t-37 6h-56v71h54q55 0 86 32.5t31 94.5q0 58 -35.5 86.5t-78.5 28.5q-56 0 -86 -27t-30 -76v-10
h-90v24q0 72 56.5 120t153.5 48q104 0 155 -55.5t51 -126.5q0 -58 -28.5 -104.5t-74.5 -62.5v-4q51 -15 88.5 -59.5t37.5 -111.5z" />
    <glyph glyph-name="four" unicode="4" horiz-adv-x="576" 
d="M527 192h-93v-192h-92v192h-299v76l272 445h119v-443h93v-78zM342 270v349h-5l-210 -349h215z" />
    <glyph glyph-name="five" unicode="5" horiz-adv-x="556" 
d="M509 209q0 -93 -66.5 -157t-164.5 -64q-102 0 -157 47t-55 112v32h91v-19q0 -44 37 -69t87 -25q52 0 89.5 35.5t37.5 101.5v66q0 53 -39.5 80.5t-88.5 27.5q-73 0 -123 -52l-80 16l22 372h372v-79h-295l-13 -229q69 50 148 50q78 0 138 -43t60 -125v-78z" />
    <glyph glyph-name="six" unicode="6" horiz-adv-x="567" 
d="M507 180q0 -91 -63 -141.5t-164 -50.5q-98 0 -158.5 57.5t-60.5 150.5v317q0 95 64.5 153.5t163.5 58.5q97 0 154 -46t57 -125v-20h-92v12q0 48 -33 74.5t-89 26.5q-61 0 -94 -36.5t-33 -91.5v-154q27 34 72 54.5t94 20.5q80 0 131 -42t51 -116v-102zM411 178v94
q0 53 -34.5 76t-84.5 23q-49 0 -91 -38t-42 -95v-47q0 -52 33 -88.5t95 -36.5q61 0 92.5 31.5t31.5 80.5z" />
    <glyph glyph-name="seven" unicode="7" horiz-adv-x="541" 
d="M494 634l-312 -634h-99l313 633h-344v80h442v-79z" />
    <glyph glyph-name="eight" unicode="8" horiz-adv-x="559" 
d="M505 178q0 -88 -65 -139t-164 -51q-101 0 -161.5 47.5t-60.5 134.5v48q0 48 27 87.5t69 58.5q-40 17 -64 54t-24 84v34q0 90 63.5 139.5t153.5 49.5q91 0 154 -43.5t63 -127.5v-36q0 -118 -94 -151q46 -15 74.5 -52.5t28.5 -85.5v-51zM402 503v40q0 51 -36.5 78.5
t-88.5 27.5q-48 0 -84 -28.5t-36 -76.5v-41q0 -54 36.5 -80.5t87.5 -26.5q48 0 84.5 29t36.5 78zM406 179v47q0 55 -36.5 79t-90.5 24t-90 -25t-36 -79v-46q0 -52 36.5 -83.5t87.5 -31.5q55 0 92 30t37 85z" />
    <glyph glyph-name="nine" unicode="9" horiz-adv-x="561" 
d="M500 198q0 -95 -66 -152.5t-165 -57.5q-97 0 -152.5 45.5t-55.5 125.5v20h92v-12q0 -48 33 -74.5t89 -26.5q61 0 94 36.5t33 92.5v149q-22 -37 -68 -57.5t-98 -20.5q-79 0 -130.5 45t-51.5 119v102q0 91 63 142t164 51q98 0 158.5 -57.5t60.5 -149.5v-320zM402 468v52
q0 52 -33.5 90t-94.5 38t-92.5 -31.5t-31.5 -79.5v-96q0 -53 35 -79.5t83 -26.5q49 0 91.5 38t42.5 95z" />
    <glyph glyph-name="colon" unicode=":" horiz-adv-x="242" 
d="M172 349h-102v131h102v-131zM172 0h-102v131h102v-131z" />
    <glyph glyph-name="semicolon" unicode=";" horiz-adv-x="242" 
d="M172 349h-102v131h102v-131zM172 5l-43 -112h-53l27 110h-33v128h102v-126z" />
    <glyph glyph-name="less" unicode="&#x3c;" horiz-adv-x="597" 
d="M513 171l-27 -55l-402 179v51l401 179l28 -55l-344 -149z" />
    <glyph glyph-name="equal" unicode="=" horiz-adv-x="597" 
d="M526 377h-455v59h455v-59zM526 199h-455v58h455v-58z" />
    <glyph glyph-name="greater" unicode="&#x3e;" horiz-adv-x="597" 
d="M513 295l-401 -179l-28 55l344 150l-344 149l28 55l401 -179v-51z" />
    <glyph glyph-name="question" unicode="?" horiz-adv-x="523" 
d="M472 537q0 -93 -85 -170q-2 -2 -14.5 -12.5t-22.5 -19.5t-14 -13q-43 -40 -43 -82v-40h-83v41q0 63 50 116q12 13 52 49q35 35 43 47q24 34 24 80q0 50 -30.5 82t-81.5 32q-47 0 -83 -24t-36 -75v-40h-85v38q0 87 60 132.5t150 45.5q91 0 145 -50t54 -137zM301 0h-102
v131h102v-131z" />
    <glyph glyph-name="at" unicode="@" horiz-adv-x="949" 
d="M863 393q0 -119 -70 -210t-170 -91q-37 0 -61 22t-32 56q-58 -75 -134 -75q-51 0 -78.5 43.5t-27.5 96.5q0 99 61.5 178t151.5 79h144l-57 -273q2 -65 54 -65q38 0 69 26.5t48 66t26.5 79.5t9.5 73q0 114 -81.5 179t-197.5 65q-164 0 -263.5 -110.5t-99.5 -273.5
q0 -116 56 -191t155 -102q53 -14 124 -14q107 0 238 49l17 -57q-133 -54 -260 -54q-77 0 -138 16q-121 32 -191 123t-70 230q0 191 124 317.5t318 126.5q148 0 241.5 -82.5t93.5 -227.5zM561 427h-70q-54 0 -90.5 -57t-36.5 -114q0 -21 1 -32.5t5.5 -28t17 -24.5t32.5 -8
q45 0 73.5 44t38.5 90z" />
    <glyph glyph-name="A" unicode="A" horiz-adv-x="657" 
d="M634 0h-103l-65 187h-278l-65 -187h-100l261 716h92zM438 271l-110 320h-2l-110 -320h222z" />
    <glyph glyph-name="B" unicode="B" horiz-adv-x="632" 
d="M583 203q0 -97 -66 -150t-158 -53h-282v713h277q97 0 152.5 -46.5t55.5 -134.5q0 -55 -28.5 -96t-78.5 -62v-2q61 -16 94.5 -61.5t33.5 -107.5zM461 521q0 107 -123 107h-163v-221h161q57 0 91 29t34 85zM480 206q0 59 -37.5 88.5t-100.5 29.5h-167v-240h170
q62 0 98.5 31t36.5 91z" />
    <glyph glyph-name="C" unicode="C" horiz-adv-x="641" 
d="M590 199q0 -101 -75 -156t-179 -55q-120 0 -198.5 61.5t-78.5 179.5v241q0 114 76.5 185t195.5 71q111 0 185 -57.5t74 -153.5v-25h-94v14q0 64 -46 99.5t-121 35.5q-74 0 -122 -43t-48 -119v-242q0 -75 48 -118t126 -43q74 0 118 35.5t44 99.5v15h95v-25z" />
    <glyph glyph-name="D" unicode="D" horiz-adv-x="659" 
d="M600 248q0 -114 -74 -181t-184 -67h-265v713h264q115 0 187 -64.5t72 -177.5v-223zM500 470q0 70 -45 113t-123 43h-157v-539h163q74 0 118 42t44 113v228z" />
    <glyph glyph-name="E" unicode="E" horiz-adv-x="593" 
d="M533 0h-456v713h454v-87h-356v-215h297v-87h-297v-237h358v-87z" />
    <glyph glyph-name="F" unicode="F" horiz-adv-x="556" 
d="M523 626h-347v-218h284v-86h-284v-322h-99v713h446v-87z" />
    <glyph glyph-name="G" unicode="G" horiz-adv-x="659" 
d="M593 220q0 -113 -74 -172.5t-188 -59.5q-118 0 -195 63.5t-77 177.5v237q0 120 76 190t196 70q116 0 189 -54t73 -164v-23h-94v13q0 140 -170 140q-74 0 -122 -44t-48 -123v-236q0 -75 48 -117.5t126 -42.5q74 0 120 37t46 109v56h-181v89h275v-146z" />
    <glyph glyph-name="H" unicode="H" horiz-adv-x="680" 
d="M603 0h-99v324h-328v-324h-99v713h98v-302h329v302h99v-713z" />
    <glyph glyph-name="I" unicode="I" horiz-adv-x="529" 
d="M467 0h-405v87h153v539h-153v87h405v-87h-153v-539h153v-87z" />
    <glyph glyph-name="J" unicode="J" horiz-adv-x="592" 
d="M521 220q0 -98 -61.5 -165t-171.5 -67t-173 54t-63 162v64h99v-55q0 -137 142 -137q65 0 97 44.5t32 105.5v487h99v-493z" />
    <glyph glyph-name="K" unicode="K" horiz-adv-x="640" 
d="M618 0h-117l-223 353l-103 -109v-244h-98v713h98v-354h1l310 354h118l-260 -291z" />
    <glyph glyph-name="L" unicode="L" horiz-adv-x="553" 
d="M523 0h-446v713h99v-626h347v-87z" />
    <glyph glyph-name="M" unicode="M" horiz-adv-x="800" 
d="M724 0h-96v560h-4l-186 -440h-78l-185 439h-3v-559h-95v713h133l190 -457h2l188 457h134v-713z" />
    <glyph glyph-name="N" unicode="N" horiz-adv-x="685" 
d="M608 -1h-94l-342 547h-2v-546h-93v713h97l339 -538h3v538h92v-714z" />
    <glyph glyph-name="O" unicode="O" horiz-adv-x="664" 
d="M605 244q0 -118 -79.5 -187t-194.5 -69q-118 0 -195 63.5t-77 177.5v237q0 119 78 189.5t194 70.5q119 0 196.5 -67t77.5 -182v-233zM505 479q0 74 -48 116.5t-128 42.5q-74 0 -122 -44t-48 -123v-236q0 -75 48 -117.5t126 -42.5q75 0 123.5 42.5t48.5 119.5v242z" />
    <glyph glyph-name="P" unicode="P" horiz-adv-x="613" 
d="M570 498q0 -97 -62.5 -158.5t-176.5 -61.5h-156v-278h-98v713h256q107 0 172 -57t65 -158zM471 498q0 65 -42 98t-117 33h-137v-267h139q76 0 116.5 34.5t40.5 101.5z" />
    <glyph glyph-name="Q" unicode="Q" horiz-adv-x="664" 
d="M647 12l-55 -65l-102 84q-69 -43 -159 -43q-118 0 -195 63.5t-77 177.5v237q0 119 78 189.5t194 70.5q119 0 196.5 -67t77.5 -182v-233q0 -91 -51 -155zM505 479q0 74 -48 116.5t-128 42.5q-74 0 -122 -44t-48 -123v-236q0 -75 48 -117.5t126 -42.5q47 0 85 18l-78 64
l56 65l84 -71q25 36 25 86v242z" />
    <glyph glyph-name="R" unicode="R" horiz-adv-x="633" 
d="M599 0h-112l-184 278h-127v-278h-99v713h257q100 0 160 -47q77 -58 77 -168q0 -79 -43 -135.5t-122 -75.5zM472 498q0 67 -45 99t-114 32h-137v-267h139q76 0 116.5 34.5t40.5 101.5z" />
    <glyph glyph-name="S" unicode="S" horiz-adv-x="610" 
d="M564 204q0 -100 -73.5 -158t-184.5 -58q-104 0 -176 48t-94 136l94 29q18 -58 63.5 -92.5t114.5 -34.5q63 0 109.5 31t46.5 89q0 48 -31.5 74.5t-89.5 41.5q-88 23 -143 43q-126 47 -126 169q0 95 66 149t168 54q191 0 244 -143l-85 -36q-45 95 -160 95q-55 0 -94.5 -29
t-39.5 -80q0 -72 101 -100q6 -2 41 -12t66 -19.5t42 -13.5q141 -48 141 -183z" />
    <glyph glyph-name="T" unicode="T" horiz-adv-x="571" 
d="M541 627h-205v-627h-100v627h-206v86h511v-86z" />
    <glyph glyph-name="U" unicode="U" horiz-adv-x="662" 
d="M595 227q0 -114 -77 -176.5t-189 -62.5t-187 58.5t-75 171.5v495h100v-481q0 -72 45.5 -114t120.5 -42q73 0 118.5 39.5t45.5 115.5v482h98v-486z" />
    <glyph glyph-name="V" unicode="V" horiz-adv-x="593" 
d="M577 713l-231 -716h-100l-230 716h102l178 -574h3l175 574h103z" />
    <glyph glyph-name="W" unicode="W" horiz-adv-x="898" 
d="M876 713l-189 -716h-93l-143 558h-3l-145 -558h-94l-187 716h101l134 -557h3l145 557h92l142 -558h3l137 558h97z" />
    <glyph glyph-name="X" unicode="X" horiz-adv-x="573" 
d="M565 0h-115l-166 282l-166 -282h-110l222 370l-205 343h114l151 -263l153 263h108l-207 -346z" />
    <glyph glyph-name="Y" unicode="Y" horiz-adv-x="584" 
d="M572 713l-232 -418v-295h-97v295l-231 418h108l173 -325l174 325h105z" />
    <glyph glyph-name="Z" unicode="Z" horiz-adv-x="575" 
d="M531 0h-487v75l363 553h-346v85h469v-70l-363 -557h364v-86z" />
    <glyph glyph-name="bracketleft" unicode="[" horiz-adv-x="380" 
d="M358 -200h-234v974h234v-64h-138v-847h138v-63z" />
    <glyph glyph-name="backslash" unicode="\" horiz-adv-x="341" 
d="M330 -37h-72l-242 764h69z" />
    <glyph glyph-name="bracketright" unicode="]" horiz-adv-x="380" 
d="M256 -200h-234v63h138v847h-138v64h234v-974z" />
    <glyph glyph-name="asciicircum" unicode="^" horiz-adv-x="773" 
d="M717 0h-661v713h661v-713z" />
    <glyph glyph-name="underscore" unicode="_" 
d="M500 -128h-500v56h500v-56z" />
    <glyph glyph-name="grave" unicode="`" horiz-adv-x="300" 
d="M245 577h-70l-120 180h103z" />
    <glyph glyph-name="a" unicode="a" horiz-adv-x="524" 
d="M462 0h-93q-4 48 -4 52h-3q-59 -63 -146 -63q-75 0 -125 38t-50 107q0 42 18 74.5t47.5 50t62.5 26.5t68 9h126v59q0 94 -105 94q-45 0 -75 -17t-30 -51v-16h-84v11q0 74 55.5 109t136.5 35q86 0 139.5 -36t53.5 -117v-259q0 -71 8 -106zM363 178v48h-121
q-109 0 -109 -85q0 -39 28 -58.5t72 -19.5q63 0 96.5 31t33.5 84z" />
    <glyph glyph-name="b" unicode="b" horiz-adv-x="546" 
d="M496 180q0 -93 -57.5 -142.5t-139.5 -49.5q-42 0 -79 18.5t-57 46.5h-2v-53h-89v713h92v-277h1q26 38 65 59.5t80 21.5q83 0 134.5 -49.5t51.5 -132.5v-155zM402 178v152q0 48 -29.5 78t-83.5 30q-47 0 -86 -36.5t-39 -90.5v-128q0 -53 38 -86t88 -33q46 0 79 29t33 85z
" />
    <glyph glyph-name="c" unicode="c" horiz-adv-x="505" 
d="M468 165q0 -81 -55.5 -129t-146.5 -48q-98 0 -157.5 54t-59.5 151v110q0 99 60 156.5t155 57.5q91 0 147.5 -48.5t56.5 -128.5v-13h-89v13q0 41 -30 70t-84 29q-57 0 -89 -34t-32 -96v-117q0 -58 31 -92.5t91 -34.5q53 0 83 29t30 69v12h89v-10z" />
    <glyph glyph-name="d" unicode="d" horiz-adv-x="546" 
d="M474 0h-90v65h-2q-23 -34 -64 -55.5t-82 -21.5q-83 0 -134.5 49.5t-51.5 132.5v155q0 93 59 142.5t141 49.5q39 0 74.5 -17.5t54.5 -46.5h3v260h92v-713zM382 187v138q0 54 -37 85t-87 31q-46 0 -80 -29.5t-34 -84.5v-152q0 -48 29.5 -78t83.5 -30q48 0 86.5 33t38.5 87z
" />
    <glyph glyph-name="e" unicode="e" horiz-adv-x="518" 
d="M471 97q-67 -109 -193 -109q-100 0 -164.5 53t-64.5 153v106q0 103 62 160t157 57q89 0 146 -52.5t57 -148.5v-90h-327v-32q0 -58 37.5 -93t100.5 -35q69 0 118 67zM380 294v23q0 55 -29 88.5t-84 33.5q-56 0 -89.5 -32.5t-33.5 -87.5v-25h236z" />
    <glyph glyph-name="f" unicode="f" horiz-adv-x="341" 
d="M308 641q-26 2 -40 2q-28 0 -44.5 -15t-16.5 -41v-86h99v-70h-99v-431h-92v431h-84v70h84v65q0 153 142 153q3 0 51 -3v-75z" />
    <glyph glyph-name="g" unicode="g" horiz-adv-x="542" 
d="M473 7q0 -93 -58 -151t-165 -58q-63 0 -117 26t-80 77l87 39q47 -67 120 -67q57 0 90 36t33 87v85h-1q-52 -76 -143 -76q-87 0 -137 49t-50 133v134q0 94 56.5 145t138.5 51q40 0 78 -19t57 -49h2v57h89v-499zM383 200v125q0 53 -36.5 84t-86.5 31q-46 0 -80 -29.5
t-34 -84.5v-137q0 -48 29.5 -78.5t83.5 -30.5q48 0 86 33t38 87z" />
    <glyph glyph-name="h" unicode="h" horiz-adv-x="550" 
d="M482 0h-92v317q0 59 -27 89.5t-73 30.5q-53 0 -89.5 -40t-36.5 -105v-292h-92v713h92v-282h2q55 86 151 86q79 0 122 -48.5t43 -124.5v-344z" />
    <glyph glyph-name="i" unicode="i" horiz-adv-x="236" 
d="M164 608h-92v109h92v-109zM164 0h-92v506h92v-506z" />
    <glyph glyph-name="j" unicode="j" horiz-adv-x="259" 
d="M184 608h-92v109h92v-109zM184 -50v1q0 -147 -153 -147q-36 0 -48 3v77q10 -3 47 -3q61 0 61 72v553h93v-556z" />
    <glyph glyph-name="k" unicode="k" horiz-adv-x="515" 
d="M500 0h-107l-147 257l-82 -88v-169h-92v713h92v-443l214 236h105l-174 -187z" />
    <glyph glyph-name="l" unicode="l" horiz-adv-x="299" 
d="M276 5q-47 -14 -84 -14q-121 0 -121 130v592h92v-590q0 -54 52 -54q24 0 56 5q2 1 5 1v-70z" />
    <glyph glyph-name="m" unicode="m" horiz-adv-x="854" 
d="M786 0h-92v317q0 58 -25 89t-72 31q-53 0 -87.5 -41t-34.5 -100v-296h-92v316q0 121 -97 121q-46 0 -84 -38t-38 -100v-299h-92v506h89v-75h2q57 86 153 86q102 0 143 -87q4 0 4 1q60 86 160 86q74 0 118.5 -46t44.5 -120v-351z" />
    <glyph glyph-name="n" unicode="n" horiz-adv-x="550" 
d="M482 0h-92v317q0 59 -27 89.5t-73 30.5q-53 0 -89.5 -40t-36.5 -105v-292h-92v506h90v-75h2q56 86 153 86q79 0 122 -48.5t43 -124.5v-344z" />
    <glyph glyph-name="o" unicode="o" horiz-adv-x="525" 
d="M475 197q0 -97 -60.5 -153t-151.5 -56q-97 0 -155 53t-58 148v118q0 97 60.5 153.5t151.5 56.5q96 0 154.5 -56t58.5 -152v-112zM381 193v121q0 58 -29.5 91.5t-88.5 33.5q-56 0 -87.5 -33.5t-31.5 -94.5v-120q0 -58 29.5 -92t88.5 -34q56 0 87.5 33.5t31.5 94.5z" />
    <glyph glyph-name="p" unicode="p" horiz-adv-x="546" 
d="M496 180q0 -93 -57 -142.5t-138 -49.5q-42 0 -78.5 17.5t-55.5 46.5h-3v-252h-92v706h90v-70h2q54 81 146 81q83 0 134.5 -49.5t51.5 -132.5v-155zM402 178v152q0 48 -29.5 78t-83.5 30q-47 0 -86 -36.5t-39 -90.5v-128q0 -53 38 -86t88 -33q46 0 79 29t33 85z" />
    <glyph glyph-name="q" unicode="q" horiz-adv-x="546" 
d="M474 -200h-91v265h-1q-23 -34 -64 -55.5t-82 -21.5q-83 0 -134.5 49.5t-51.5 132.5v149q0 94 57 146t140 52q39 0 76.5 -18t56.5 -46h3v54h91v-707zM382 187v138q0 54 -37 85t-87 31q-46 0 -80 -29.5t-34 -84.5v-152q0 -48 29.5 -78t83.5 -30q48 0 86.5 33t38.5 87z" />
    <glyph glyph-name="r" unicode="r" horiz-adv-x="396" 
d="M373 425q-24 4 -65 4q-36 0 -58 -8q-40 -15 -64.5 -53t-24.5 -92v-276h-92v506h90v-90h2q28 46 72.5 72t94.5 26q9 0 27 -2l18 -2v-85z" />
    <glyph glyph-name="s" unicode="s" horiz-adv-x="494" 
d="M457 153q0 -78 -64 -121.5t-148 -43.5q-146 0 -214 86l64 55q60 -66 149 -66q48 0 82.5 19.5t34.5 56.5q0 35 -22 49.5t-75 26.5l-67 15q-136 31 -136 130q0 72 52.5 115t137.5 43q127 0 183 -67l-62 -53q-27 25 -54.5 35.5t-69.5 10.5q-41 0 -67.5 -19t-26.5 -50
q0 -29 22.5 -43t65.5 -23l79 -17q59 -13 97.5 -47.5t38.5 -91.5z" />
    <glyph glyph-name="t" unicode="t" horiz-adv-x="352" 
d="M332 9q-47 -17 -99 -17q-58 0 -96 27.5t-38 90.5v320h-83v74h82v165h92v-165h138v-73h-138v-302q0 -59 61 -59q36 0 81 13v-74z" />
    <glyph glyph-name="u" unicode="u" horiz-adv-x="546" 
d="M479 0h-90v75h-3q-56 -86 -152 -86q-79 0 -122 49t-43 124v344h92v-316q0 -59 27 -90t73 -31q54 0 89.5 39.5t35.5 104.5v293h93v-506z" />
    <glyph glyph-name="v" unicode="v" horiz-adv-x="486" 
d="M468 506l-178 -507h-94l-178 507h97l129 -392h2l129 392h93z" />
    <glyph glyph-name="w" unicode="w" horiz-adv-x="784" 
d="M762 506l-160 -507h-93l-115 391h-3l-116 -391h-92l-161 507h97l111 -388h3l116 388h90l115 -388h2l114 388h92z" />
    <glyph glyph-name="x" unicode="x" horiz-adv-x="493" 
d="M476 0h-106l-125 189l-124 -189h-104l178 263l-165 243h107l112 -170l112 170h102l-165 -241z" />
    <glyph glyph-name="y" unicode="y" horiz-adv-x="493" 
d="M475 507l-212 -589q-41 -115 -159 -115q-29 0 -65 6v78q36 -6 61 -6q58 0 77 51l29 78l-185 497h100l131 -383h2l127 383h94z" />
    <glyph glyph-name="z" unicode="z" horiz-adv-x="478" 
d="M432 0h-391v73l271 358h-258v75h373v-71l-272 -359h277v-76z" />
    <glyph glyph-name="braceleft" unicode="{" horiz-adv-x="381" 
d="M359 710h-138v-336l-41 -52l41 -60v-399h135v-63h-229v452l-43 69l43 62v391h232v-64z" />
    <glyph glyph-name="bar" unicode="|" horiz-adv-x="325" 
d="M198 -39h-71v764h71v-764z" />
    <glyph glyph-name="braceright" unicode="}" horiz-adv-x="381" 
d="M297 321l-43 -69v-452h-229v63h135v399l41 60l-41 52v336h-138v64h232v-391z" />
    <glyph glyph-name="asciitilde" unicode="~" horiz-adv-x="773" 
d="M717 0h-661v713h661v-713zM657 60v593h-541v-593h541z" />
    <glyph glyph-name="nbspace" unicode="&#xa0;" horiz-adv-x="240" 
 />
    <glyph glyph-name="exclamdown" unicode="&#xa1;" horiz-adv-x="280" 
d="M191 397h-102v131h102v-131zM190 -185h-100v207l20 292h60l20 -292v-207z" />
    <glyph glyph-name="cent" unicode="&#xa2;" horiz-adv-x="524" 
d="M471 210q0 -77 -44.5 -123t-120.5 -54v-84h-66v84q-81 8 -128 57.5t-47 133.5v139q0 86 47.5 137.5t127.5 60.5v65h66v-65q76 -8 120.5 -54.5t44.5 -122.5v-20h-87v16q0 46 -29 76t-82 30q-54 0 -85 -32t-31 -90v-137q0 -54 30.5 -86.5t87.5 -32.5q52 0 80.5 30t28.5 76
v16h87v-20z" />
    <glyph glyph-name="sterling" unicode="&#xa3;" horiz-adv-x="578" 
d="M543 79l-21 -79h-468v79h80v247h-73v65h73v140q0 101 58 147.5t145 46.5q86 0 136.5 -44.5t50.5 -126.5v-35h-90v35q0 44 -29 69.5t-75 25.5t-74.5 -27.5t-28.5 -81.5v-149h208v-65h-208v-247h316z" />
    <glyph glyph-name="currency" unicode="&#xa4;" horiz-adv-x="746" 
d="M689 199q0 -101 -75 -156t-179 -55q-120 0 -198.5 61.5t-78.5 179.5v13h-117v65h117v93h-117v65h117v5q0 114 76.5 185t195.5 71q111 0 185 -57.5t74 -153.5v-25h-94v14q0 64 -46 99.5t-121 35.5q-74 0 -122 -43t-48 -119v-12h211v-65h-211v-93h211v-65h-211v-7
q0 -75 48 -118t126 -43q74 0 118 35.5t44 99.5v15h95v-25z" />
    <glyph glyph-name="yen" unicode="&#xa5;" horiz-adv-x="584" 
d="M572 713l-221 -399l2 -2h192v-65h-205v-247h-97v247h-207v65h196l-1 4l-219 397h108l173 -325l174 325h105z" />
    <glyph glyph-name="brokenbar" unicode="&#xa6;" horiz-adv-x="491" 
d="M276 379h-61v346h61v-346zM276 -77h-61v382h61v-382z" />
    <glyph glyph-name="section" unicode="&#xa7;" horiz-adv-x="568" 
d="M489 81q0 -72 -57 -120t-156 -48q-81 0 -139 35t-58 110v36h79v-19q0 -44 33 -68.5t92 -24.5q57 0 91 24t34 61q0 19 -6.5 33t-22 23.5t-26 14t-31.5 11.5l-101 31q-131 40 -131 137q0 87 82 128q-44 20 -63 47t-19 71q0 68 51 110t146 42q90 0 141 -38t51 -108v-31h-75
v25q0 38 -33 61.5t-89 23.5q-48 0 -79.5 -20t-31.5 -58q0 -14 6.5 -25t19.5 -19t23 -13t28 -11t23 -8l91 -33q61 -22 93 -49.5t32 -80.5q0 -90 -79 -129q81 -42 81 -121zM407 312q0 49 -70 70q-73 23 -92 27q-73 -23 -73 -86q0 -45 87 -69q1 0 17.5 -4.5t36 -10.5t24.5 -8
q34 11 52 33t18 48z" />
    <glyph glyph-name="dieresis" unicode="&#xa8;" horiz-adv-x="453" 
d="M365 584h-92v118h92v-118zM179 584h-91v118h91v-118z" />
    <glyph glyph-name="copyright" unicode="&#xa9;" horiz-adv-x="941" 
d="M872 347q0 -172 -112 -290.5t-291 -118.5q-123 0 -215 56t-138.5 148t-46.5 205q0 170 112.5 288t287.5 118q181 0 292 -117t111 -289zM808 347q0 159 -98.5 257t-240.5 98q-144 0 -240 -97t-96 -258t97.5 -258.5t238.5 -97.5q142 0 240.5 98.5t98.5 257.5zM661 252
q0 -83 -54 -127.5t-137 -44.5q-84 0 -138 45t-54 131v169q0 86 54 136.5t140 50.5q84 0 136.5 -42.5t52.5 -123.5v-26h-74v22q-1 50 -31 77t-85 27t-84.5 -32.5t-29.5 -87.5v-167q0 -54 30 -84t86 -30q54 0 84 27.5t30 77.5v20h74v-18z" />
    <glyph glyph-name="ordfeminine" unicode="&#xaa;" horiz-adv-x="404" 
d="M347 369h-70l-2 36q-40 -44 -100 -44q-49 0 -83.5 25t-34.5 73q0 115 165 115h50v35q0 31 -17.5 48t-47.5 17q-29 0 -48 -14t-19 -39v-17h-65v17q0 52 39.5 79t98.5 27q55 0 92 -28t37 -83v-171q0 -36 5 -76zM338 241h-265v63h265v-63zM270 484v42h-50q-19 0 -31.5 -1.5
t-28 -6.5t-23 -18t-7.5 -33q0 -49 60 -49q31 0 55.5 18t24.5 48z" />
    <glyph glyph-name="guillemotleft" unicode="&#xab;" horiz-adv-x="538" 
d="M497 117l-49 -44l-200 197l199 198l49 -46l-145 -152zM290 117l-49 -44l-200 197l199 198l48 -46l-144 -152z" />
    <glyph glyph-name="logicalnot" unicode="&#xac;" horiz-adv-x="521" 
d="M457 166l-43 -44l-155 156l-153 -155l-42 42l154 155l-155 155l44 44l154 -156l153 155l42 -42l-153 -154z" />
    <glyph glyph-name="registered" unicode="&#xae;" horiz-adv-x="525" 
d="M462 580q0 -84 -56 -142.5t-144 -58.5q-91 0 -145 58t-54 143q0 84 56.5 142t142.5 58q89 0 144.5 -58t55.5 -142zM416 580q0 74 -44.5 118.5t-109.5 44.5q-66 0 -109 -44t-43 -119q0 -73 44 -117.5t108 -44.5q63 0 108.5 44.5t45.5 117.5zM356 479h-49q-3 6 -5 21l-3 31
q-3 30 -32 30h-34v-82h-48v212h95q29 0 48 -14t19 -43q0 -40 -37 -52v-2q31 -9 34 -41l2 -25q2 -25 10 -33v-2zM299 626q0 31 -32 31h-34v-64h35q31 0 31 33z" />
    <glyph glyph-name="macron" unicode="&#xaf;" horiz-adv-x="408" 
d="M354 605h-300v71h300v-71z" />
    <glyph glyph-name="degree" unicode="&#xb0;" horiz-adv-x="335" 
d="M276 630q0 -43 -32 -74t-77 -31q-47 0 -77.5 30.5t-30.5 73.5q0 45 31.5 76t76.5 31q46 0 77.5 -31t31.5 -75zM225 630q0 25 -17 43.5t-41 18.5t-40.5 -18t-16.5 -44q0 -25 16.5 -42.5t40.5 -17.5t41 17.5t17 42.5z" />
    <glyph glyph-name="plusminus" unicode="&#xb1;" 
 />
    <glyph glyph-name="twosuperior" unicode="&#xb2;" 
 />
    <glyph glyph-name="threesuperior" unicode="&#xb3;" 
 />
    <glyph glyph-name="acute" unicode="&#xb4;" horiz-adv-x="300" 
d="M245 757l-120 -180h-70l87 180h103z" />
    <glyph glyph-name="mu" unicode="&#xb5;" 
 />
    <glyph glyph-name="paragraph" unicode="&#xb6;" horiz-adv-x="621" 
d="M565 652h-56v-742h-69v742h-110v-742h-68v323q-96 6 -142.5 73t-46.5 165q0 96 55.5 169t141.5 73h295v-61z" />
    <glyph glyph-name="periodcentered" unicode="&#xb7;" horiz-adv-x="242" 
d="M172 326h-102v130h102v-130z" />
    <glyph glyph-name="cedilla" unicode="&#xb8;" horiz-adv-x="392" 
d="M306 -118q0 -39 -36 -61.5t-87 -22.5q-55 0 -99 18v47q48 -17 91 -17q52 0 52 29q0 28 -42 31l-40 2l23 99h48l-12 -58h14q88 -2 88 -67z" />
    <glyph glyph-name="onesuperior" unicode="&#xb9;" 
 />
    <glyph glyph-name="ordmasculine" unicode="&#xba;" horiz-adv-x="413" 
d="M354 504q0 -70 -41 -108t-108 -38q-69 0 -107.5 37.5t-38.5 108.5v80q0 70 40.5 109t107.5 39q69 0 108 -38t39 -110v-80zM340 241h-265v63h265v-63zM279 505v81q0 86 -71 86q-74 0 -74 -89v-80q0 -87 71 -87q74 0 74 89z" />
    <glyph glyph-name="guillemotright" unicode="&#xbb;" horiz-adv-x="538" 
d="M497 270l-199 -197l-49 45l145 152l-145 153l49 45zM290 270l-200 -197l-48 45l145 152l-146 153l49 45z" />
    <glyph glyph-name="onequarter" unicode="&#xbc;" 
 />
    <glyph glyph-name="onehalf" unicode="&#xbd;" 
 />
    <glyph glyph-name="threequarters" unicode="&#xbe;" 
 />
    <glyph glyph-name="questiondown" unicode="&#xbf;" horiz-adv-x="523" 
d="M335 396h-102v131h102v-131zM471 -19q0 -87 -60.5 -132.5t-150.5 -45.5q-91 0 -144.5 50t-53.5 137q0 93 85 170q2 2 14.5 12.5t22.5 19.5t14 13q42 39 42 82v40h84v-41q0 -63 -50 -116q-25 -25 -52 -49q-33 -33 -43 -47q-24 -34 -24 -80q0 -50 30.5 -82t81.5 -32
q46 0 82.5 24t36.5 75v41h85v-39z" />
    <glyph glyph-name="Agrave" unicode="&#xc0;" horiz-adv-x="657" 
d="M366 785h-70l-120 180h102zM634 0h-103l-65 187h-278l-65 -187h-100l261 716h92zM438 271l-110 320h-2l-110 -320h222z" />
    <glyph glyph-name="Aacute" unicode="&#xc1;" horiz-adv-x="657" 
d="M492 965l-120 -180h-70l87 180h103zM634 0h-103l-65 187h-278l-65 -187h-100l261 716h92zM438 271l-110 320h-2l-110 -320h222z" />
    <glyph glyph-name="Acircumflex" unicode="&#xc2;" horiz-adv-x="657" 
d="M457 772h-74l-52 108l-58 -108h-73l93 180h75zM634 0h-103l-65 187h-278l-65 -187h-100l261 716h92zM438 271l-110 320h-2l-110 -320h222z" />
    <glyph glyph-name="Atilde" unicode="&#xc3;" horiz-adv-x="657" 
d="M503 886q-18 -105 -93 -105q-26 0 -76 14t-76 14q-24 0 -33 -20q-4 -10 -8 -19l-56 10q24 105 98 105q26 0 75.5 -13.5t74.5 -13.5q20 0 30 18q1 3 4.5 9.5t6.5 11.5zM634 0h-103l-65 187h-278l-65 -187h-100l261 716h92zM438 271l-110 320h-2l-110 -320h222z" />
    <glyph glyph-name="Adieresis" unicode="&#xc4;" horiz-adv-x="657" 
d="M468 785h-92v118h92v-118zM281 785h-90v118h90v-118zM634 0h-103l-65 187h-278l-65 -187h-100l261 716h92zM438 271l-110 320h-2l-110 -320h222z" />
    <glyph glyph-name="Aring" unicode="&#xc5;" horiz-adv-x="657" 
d="M433 860q0 -41 -29.5 -69.5t-70.5 -28.5q-46 0 -72 27t-26 65q0 41 28 70t70 29q46 0 73 -26t27 -67zM634 0h-103l-65 187h-278l-65 -187h-100l261 716h92zM381 857q0 20 -12.5 35.5t-35.5 15.5q-21 0 -33.5 -14.5t-12.5 -36.5q0 -21 13.5 -35.5t32.5 -14.5q20 0 34 14.5
t14 35.5zM438 271l-110 320h-2l-110 -320h222z" />
    <glyph glyph-name="AE" unicode="&#xc6;" horiz-adv-x="986" 
d="M928 0h-455v198h-239l-113 -198h-105l404 713h506v-87h-355v-215h297v-87h-297v-237h357v-87zM473 281v347l-197 -347h197z" />
    <glyph glyph-name="Ccedilla" unicode="&#xc7;" horiz-adv-x="641" 
d="M590 199q0 -97 -69.5 -151.5t-168.5 -59.5l-8 -39h14q38 0 63 -16.5t25 -50.5q0 -39 -36 -61.5t-87 -22.5q-55 0 -99 18v47q48 -17 92 -17q51 0 51 29q0 28 -41 31l-41 2l19 81q-108 8 -176.5 69t-68.5 171v241q0 114 76.5 185t195.5 71q111 0 185 -57.5t74 -153.5v-25
h-94v14q0 64 -46 99.5t-121 35.5q-74 0 -122 -43t-48 -119v-242q0 -75 48 -118t126 -43q74 0 118 35.5t44 99.5v15h95v-25z" />
    <glyph glyph-name="Egrave" unicode="&#xc8;" horiz-adv-x="593" 
d="M533 0h-456v713h454v-87h-356v-215h297v-87h-297v-237h358v-87zM352 785h-70l-120 180h103z" />
    <glyph glyph-name="Eacute" unicode="&#xc9;" horiz-adv-x="593" 
d="M533 0h-456v713h454v-87h-356v-215h297v-87h-297v-237h358v-87zM454 965l-120 -180h-70l87 180h103z" />
    <glyph glyph-name="Ecircumflex" unicode="&#xca;" horiz-adv-x="593" 
d="M533 0h-456v713h454v-87h-356v-215h297v-87h-297v-237h358v-87zM448 772h-74l-52 108l-58 -108h-73l93 180h75z" />
    <glyph glyph-name="Edieresis" unicode="&#xcb;" horiz-adv-x="593" 
d="M533 0h-456v713h454v-87h-356v-215h297v-87h-297v-237h358v-87zM447 785h-92v118h92v-118zM261 785h-91v118h91v-118z" />
    <glyph glyph-name="Igrave" unicode="&#xcc;" horiz-adv-x="529" 
d="M301 785h-70l-120 180h102zM467 0h-405v87h153v539h-153v87h405v-87h-153v-539h153v-87z" />
    <glyph glyph-name="Iacute" unicode="&#xcd;" horiz-adv-x="529" 
d="M425 965l-120 -180h-70l87 180h103zM467 0h-405v87h153v539h-153v87h405v-87h-153v-539h153v-87z" />
    <glyph glyph-name="Icircumflex" unicode="&#xce;" horiz-adv-x="529" 
d="M393 772h-74l-52 108l-58 -108h-73l93 180h75zM467 0h-405v87h153v539h-153v87h405v-87h-153v-539h153v-87z" />
    <glyph glyph-name="Idieresis" unicode="&#xcf;" horiz-adv-x="529" 
d="M403 785h-92v118h92v-118zM217 785h-91v118h91v-118zM467 0h-405v87h153v539h-153v87h405v-87h-153v-539h153v-87z" />
    <glyph glyph-name="Eth" unicode="&#xd0;" horiz-adv-x="659" 
d="M600 248q0 -114 -74 -181t-184 -67h-265v326h-54v75h54v312h264q115 0 187 -64.5t72 -177.5v-223zM500 470q0 70 -45 113t-123 43h-157v-225h205v-75h-205v-239h163q74 0 118 43t44 112v228z" />
    <glyph glyph-name="Ntilde" unicode="&#xd1;" horiz-adv-x="685" 
d="M608 -1h-94l-342 547h-2v-546h-93v713h97l339 -538h3v538h92v-714zM523 886q-18 -105 -93 -105q-26 0 -76 14t-77 14q-23 0 -32 -20q-4 -10 -8 -19l-56 10q24 105 98 105q26 0 75.5 -13.5t74.5 -13.5q20 0 30 18q2 3 5 9.5t6 11.5z" />
    <glyph glyph-name="Ograve" unicode="&#xd2;" horiz-adv-x="664" 
d="M605 244q0 -118 -79.5 -187t-194.5 -69q-118 0 -195 63.5t-77 177.5v237q0 119 78 189.5t194 70.5q119 0 196.5 -67t77.5 -182v-233zM504 237l1 242q0 74 -48 116.5t-128 42.5q-74 0 -122 -44t-48 -123v-236q0 -75 48 -117.5t126 -42.5q75 0 123 42.5t48 119.5zM382 785
h-70l-120 180h103z" />
    <glyph glyph-name="Oacute" unicode="&#xd3;" horiz-adv-x="664" 
d="M605 244q0 -118 -79.5 -187t-194.5 -69q-118 0 -195 63.5t-77 177.5v237q0 119 78 189.5t194 70.5q119 0 196.5 -67t77.5 -182v-233zM504 237l1 242q0 74 -48 116.5t-128 42.5q-74 0 -122 -44t-48 -123v-236q0 -75 48 -117.5t126 -42.5q75 0 123 42.5t48 119.5zM492 965
l-120 -180h-70l87 180h103z" />
    <glyph glyph-name="Ocircumflex" unicode="&#xd4;" horiz-adv-x="664" 
d="M605 244q0 -118 -79.5 -187t-194.5 -69q-118 0 -195 63.5t-77 177.5v237q0 119 78 189.5t194 70.5q119 0 196.5 -67t77.5 -182v-233zM504 237l1 242q0 74 -48 116.5t-128 42.5q-74 0 -122 -44t-48 -123v-236q0 -75 48 -117.5t126 -42.5q75 0 123 42.5t48 119.5zM460 772
h-73l-52 108l-58 -108h-74l93 180h75z" />
    <glyph glyph-name="Otilde" unicode="&#xd5;" horiz-adv-x="664" 
d="M605 244q0 -118 -79.5 -187t-194.5 -69q-118 0 -195 63.5t-77 177.5v237q0 119 78 189.5t194 70.5q119 0 196.5 -67t77.5 -182v-233zM504 237l1 242q0 74 -48 116.5t-128 42.5q-74 0 -122 -44t-48 -123v-236q0 -75 48 -117.5t126 -42.5q75 0 123 42.5t48 119.5zM503 886
q-18 -105 -93 -105q-26 0 -76 14t-77 14q-23 0 -32 -20q-4 -10 -8 -19l-56 10q24 105 98 105q26 0 75.5 -13.5t74.5 -13.5q20 0 30 18q1 3 4.5 9.5t6.5 11.5z" />
    <glyph glyph-name="Odieresis" unicode="&#xd6;" horiz-adv-x="664" 
d="M605 244q0 -118 -79.5 -187t-194.5 -69q-118 0 -195 63.5t-77 177.5v237q0 119 78 189.5t194 70.5q119 0 196.5 -67t77.5 -182v-233zM504 237l1 242q0 74 -48 116.5t-128 42.5q-74 0 -122 -44t-48 -123v-236q0 -75 48 -117.5t126 -42.5q75 0 123 42.5t48 119.5zM471 785
h-92v118h92v-118zM284 785h-91v118h91v-118z" />
    <glyph glyph-name="multiply" unicode="&#xd7;" horiz-adv-x="521" 
d="M457 166l-43 -44l-155 156l-153 -155l-42 42l154 155l-155 155l44 44l154 -156l153 155l42 -42l-153 -154z" />
    <glyph glyph-name="Oslash" unicode="&#xd8;" horiz-adv-x="664" 
d="M605 244q0 -118 -79.5 -187t-194.5 -69q-89 0 -154 36l-37 -64l-55 28l42 72q-68 65 -68 169v237q0 119 78 189.5t194 70.5q90 0 158 -40l35 62l54 -28l-41 -71q68 -68 68 -172v-233zM442 606q-44 32 -113 32q-74 0 -122 -44t-48 -123v-236q0 -50 21 -83zM505 237v242
q0 45 -19 80l-262 -453q45 -31 109 -31q75 0 123.5 42.5t48.5 119.5z" />
    <glyph glyph-name="Ugrave" unicode="&#xd9;" horiz-adv-x="662" 
d="M595 227q0 -114 -77 -176.5t-189 -62.5t-187 58.5t-75 171.5v495h100v-481q0 -72 45.5 -114t120.5 -42q73 0 118.5 39.5t45.5 115.5v482h98v-486zM373 785h-70l-120 180h103z" />
    <glyph glyph-name="Uacute" unicode="&#xda;" horiz-adv-x="662" 
d="M595 227q0 -114 -77 -176.5t-189 -62.5t-187 58.5t-75 171.5v495h100v-481q0 -72 45.5 -114t120.5 -42q73 0 118.5 39.5t45.5 115.5v482h98v-486zM492 965l-120 -180h-70l87 180h103z" />
    <glyph glyph-name="Ucircumflex" unicode="&#xdb;" horiz-adv-x="662" 
d="M595 227q0 -114 -77 -176.5t-189 -62.5t-187 58.5t-75 171.5v495h100v-481q0 -72 45.5 -114t120.5 -42q73 0 118.5 39.5t45.5 115.5v482h98v-486zM459 772h-73l-52 108l-58 -108h-74l93 180h75z" />
    <glyph glyph-name="Udieresis" unicode="&#xdc;" horiz-adv-x="662" 
d="M595 227q0 -114 -77 -176.5t-189 -62.5t-187 58.5t-75 171.5v495h100v-481q0 -72 45.5 -114t120.5 -42q73 0 118.5 39.5t45.5 115.5v482h98v-486zM470 785h-92v118h92v-118zM283 785h-91v118h91v-118z" />
    <glyph glyph-name="Yacute" unicode="&#xdd;" horiz-adv-x="584" 
d="M572 713l-232 -418v-295h-97v295l-231 418h108l173 -325l174 325h105zM450 965l-120 -180h-70l87 180h103z" />
    <glyph glyph-name="Thorn" unicode="&#xde;" horiz-adv-x="613" 
d="M570 388q0 -97 -62.5 -158.5t-176.5 -61.5h-155v-168h-99v713h99v-110h157q107 0 172 -57t65 -158zM471 388q0 65 -42 98t-117 33h-136v-267h138q76 0 116.5 34.5t40.5 101.5z" />
    <glyph glyph-name="germandbls" unicode="&#xdf;" horiz-adv-x="610" 
d="M566 182q0 -86 -64.5 -140t-150.5 -54q-70 0 -118 22v79q54 -23 105 -23q58 0 95 32t37 89q0 38 -17.5 65.5t-46.5 41t-58 19t-61 5.5v68h30q43 17 73 62t30 92q0 52 -34 83.5t-93 31.5q-61 0 -94 -41t-33 -91v-523h-95v515q0 90 62.5 150.5t165.5 60.5q99 0 157.5 -50
t58.5 -130q0 -55 -29.5 -102t-77.5 -70v-2q158 -48 158 -190z" />
    <glyph glyph-name="agrave" unicode="&#xe0;" horiz-adv-x="524" 
d="M313 577h-70l-120 180h103zM462 0h-93q-4 48 -4 52h-3q-59 -63 -146 -63q-75 0 -125 38t-50 107q0 42 18 74.5t47.5 50t62.5 26.5t68 9h126v59q0 94 -105 94q-45 0 -75 -17t-30 -51v-16h-84v11q0 74 55.5 109t136.5 35q86 0 139.5 -36t53.5 -117v-259q0 -71 8 -106z
M363 178v48h-121q-109 0 -109 -85q0 -39 28 -58.5t72 -19.5q63 0 96.5 31t33.5 84z" />
    <glyph glyph-name="aacute" unicode="&#xe1;" horiz-adv-x="524" 
d="M402 757l-120 -180h-70l88 180h102zM462 0h-93q-4 48 -4 52h-3q-59 -63 -146 -63q-75 0 -125 38t-50 107q0 42 18 74.5t47.5 50t62.5 26.5t68 9h126v59q0 94 -105 94q-45 0 -75 -17t-30 -51v-16h-84v11q0 74 55.5 109t136.5 35q86 0 139.5 -36t53.5 -117v-259
q0 -71 8 -106zM363 178v48h-121q-109 0 -109 -85q0 -39 28 -58.5t72 -19.5q63 0 96.5 31t33.5 84z" />
    <glyph glyph-name="acircumflex" unicode="&#xe2;" horiz-adv-x="524" 
d="M400 577h-74l-52 108l-58 -108h-73l93 180h75zM462 0h-93q-4 48 -4 52h-3q-59 -63 -146 -63q-75 0 -125 38t-50 107q0 42 18 74.5t47.5 50t62.5 26.5t68 9h126v59q0 94 -105 94q-45 0 -75 -17t-30 -51v-16h-84v11q0 74 55.5 109t136.5 35q86 0 139.5 -36t53.5 -117v-259
q0 -71 8 -106zM363 178v48h-121q-109 0 -109 -85q0 -39 28 -58.5t72 -19.5q63 0 96.5 31t33.5 84z" />
    <glyph glyph-name="atilde" unicode="&#xe3;" horiz-adv-x="524" 
d="M435 693q-18 -105 -93 -105q-26 0 -76 14t-76 14q-24 0 -33 -20q-4 -10 -7 -19l-56 11q22 105 98 105q26 0 75 -14t75 -14q19 0 30 18q1 3 4.5 9t5.5 12zM462 0h-93q-4 48 -4 52h-3q-59 -63 -146 -63q-75 0 -125 38t-50 107q0 42 18 74.5t47.5 50t62.5 26.5t68 9h126v59
q0 94 -105 94q-45 0 -75 -17t-30 -51v-16h-84v11q0 74 55.5 109t136.5 35q86 0 139.5 -36t53.5 -117v-259q0 -71 8 -106zM363 178v48h-121q-109 0 -109 -85q0 -39 28 -58.5t72 -19.5q63 0 96.5 31t33.5 84z" />
    <glyph glyph-name="adieresis" unicode="&#xe4;" horiz-adv-x="524" 
d="M407 584h-92v118h92v-118zM220 584h-91v118h91v-118zM462 0h-93q-4 48 -4 52h-3q-59 -63 -146 -63q-75 0 -125 38t-50 107q0 42 18 74.5t47.5 50t62.5 26.5t68 9h126v59q0 94 -105 94q-45 0 -75 -17t-30 -51v-16h-84v11q0 74 55.5 109t136.5 35q86 0 139.5 -36t53.5 -117
v-259q0 -71 8 -106zM363 178v48h-121q-109 0 -109 -85q0 -39 28 -58.5t72 -19.5q63 0 96.5 31t33.5 84z" />
    <glyph glyph-name="aring" unicode="&#xe5;" horiz-adv-x="524" 
d="M365 668q0 -41 -29.5 -69.5t-70.5 -28.5q-46 0 -72 27t-26 65q0 41 28 70t70 29q47 0 73.5 -26t26.5 -67zM462 0h-93q-4 48 -4 52h-3q-59 -63 -146 -63q-75 0 -125 38t-50 107q0 42 18 74.5t47.5 50t62.5 26.5t68 9h126v59q0 94 -105 94q-45 0 -75 -17t-30 -51v-16h-84
v11q0 74 55.5 109t136.5 35q86 0 139.5 -36t53.5 -117v-259q0 -71 8 -106zM313 665q0 21 -12.5 36t-35.5 15q-21 0 -33.5 -14.5t-12.5 -36.5q0 -21 13.5 -35.5t32.5 -14.5q20 0 34 14.5t14 35.5zM363 178v48h-121q-109 0 -109 -85q0 -39 28 -58.5t72 -19.5q63 0 96.5 31
t33.5 84z" />
    <glyph glyph-name="ae" unicode="&#xe6;" horiz-adv-x="816" 
d="M784 225h-327v-37q0 -57 39 -90.5t95 -33.5q67 0 117 65l69 -41q-36 -55 -82 -77.5t-110 -22.5q-128 0 -188 85q-67 -84 -181 -84q-75 0 -125 38t-50 107q0 42 18 74.5t47.5 50t62.5 26.5t68 9h125v56q0 47 -27.5 72t-76.5 25q-44 0 -74.5 -18.5t-30.5 -53.5v-20h-84v15
q0 75 56 111.5t136 36.5q113 0 163 -61q62 60 157 60q85 0 144 -51t59 -145v-96zM696 291v30q0 59 -34 89t-81 30q-50 0 -87 -31t-37 -95v-23h239zM362 176v50h-120q-109 0 -109 -85q0 -39 28 -58.5t72 -19.5q62 0 95.5 30.5t33.5 82.5z" />
    <glyph glyph-name="ccedilla" unicode="&#xe7;" horiz-adv-x="505" 
d="M468 165q0 -76 -49.5 -123.5t-131.5 -52.5l-9 -40h14q38 0 63 -16.5t25 -50.5q0 -39 -36 -61.5t-87 -22.5q-55 0 -99 18v47q48 -17 92 -17q51 0 51 29q0 28 -41 31l-41 2l19 81q-86 8 -137.5 61t-51.5 143v110q0 99 60 156.5t155 57.5q91 0 147.5 -48.5t56.5 -128.5v-13
h-89v13q0 41 -30 70t-84 29q-57 0 -89 -34t-32 -96v-117q0 -58 31 -92.5t91 -34.5q53 0 83 29t30 69v12h89v-10z" />
    <glyph glyph-name="egrave" unicode="&#xe8;" horiz-adv-x="518" 
d="M471 97q-67 -109 -193 -109q-100 0 -164.5 53t-64.5 153v106q0 103 62 160t157 57q89 0 146 -52.5t57 -148.5v-90h-327v-32q0 -58 37.5 -93t100.5 -35q69 0 118 67zM380 294v23q0 55 -29 88.5t-84 33.5q-56 0 -89.5 -32.5t-33.5 -87.5v-25h236zM331 577h-70l-120 180h103
z" />
    <glyph glyph-name="eacute" unicode="&#xe9;" horiz-adv-x="518" 
d="M471 97q-67 -109 -193 -109q-100 0 -164.5 53t-64.5 153v106q0 103 62 160t157 57q89 0 146 -52.5t57 -148.5v-90h-327v-32q0 -58 37.5 -93t100.5 -35q69 0 118 67zM380 294v23q0 55 -29 88.5t-84 33.5q-56 0 -89.5 -32.5t-33.5 -87.5v-25h236zM414 757l-120 -180h-70
l87 180h103z" />
    <glyph glyph-name="ecircumflex" unicode="&#xea;" horiz-adv-x="518" 
d="M471 97q-67 -109 -193 -109q-100 0 -164.5 53t-64.5 153v106q0 103 62 160t157 57q89 0 146 -52.5t57 -148.5v-90h-327v-32q0 -58 37.5 -93t100.5 -35q69 0 118 67zM380 294v23q0 55 -29 88.5t-84 33.5q-56 0 -89.5 -32.5t-33.5 -87.5v-25h236zM400 577h-74l-52 108
l-58 -108h-73l93 180h75z" />
    <glyph glyph-name="edieresis" unicode="&#xeb;" horiz-adv-x="518" 
d="M471 97q-67 -109 -193 -109q-100 0 -164.5 53t-64.5 153v106q0 103 62 160t157 57q89 0 146 -52.5t57 -148.5v-90h-327v-32q0 -58 37.5 -93t100.5 -35q69 0 118 67zM380 294v23q0 55 -29 88.5t-84 33.5q-56 0 -89.5 -32.5t-33.5 -87.5v-25h236zM407 584h-92v118h92v-118z
M220 584h-91v118h91v-118z" />
    <glyph glyph-name="igrave" unicode="&#xec;" horiz-adv-x="236" 
d="M164 0h-92v506h92v-506zM153 577h-70l-120 180h103z" />
    <glyph glyph-name="iacute" unicode="&#xed;" horiz-adv-x="236" 
d="M164 0h-92v506h92v-506zM277 757l-120 -180h-70l87 180h103z" />
    <glyph glyph-name="icircumflex" unicode="&#xee;" horiz-adv-x="236" 
d="M164 0h-92v506h92v-506zM247 577h-74l-52 108l-58 -108h-73l93 180h75z" />
    <glyph glyph-name="idieresis" unicode="&#xef;" horiz-adv-x="236" 
d="M164 0h-92v506h92v-506zM257 584h-92v118h92v-118zM70 584h-91v118h91v-118z" />
    <glyph glyph-name="eth" unicode="&#xf0;" horiz-adv-x="525" 
d="M475 197q0 -97 -60.5 -153t-151.5 -56q-97 0 -155 53t-58 148v118q0 97 60.5 153.5t151.5 56.5q17 0 25 -1l-43 68l-112 -34l-19 66l92 28l-44 68l94 23l39 -64l107 32l18 -66l-87 -27l121 -199q22 -37 22 -102v-112zM381 193v121q0 58 -29.5 91.5t-88.5 33.5
q-56 0 -87.5 -33.5t-31.5 -94.5v-120q0 -58 29.5 -92t88.5 -34q56 0 87.5 33.5t31.5 94.5z" />
    <glyph glyph-name="ntilde" unicode="&#xf1;" horiz-adv-x="550" 
d="M482 0h-92v317q0 59 -27 89.5t-73 30.5q-53 0 -89.5 -40t-36.5 -105v-292h-92v506h90v-75h2q56 86 153 86q79 0 122 -48.5t43 -124.5v-344zM454 693q-18 -105 -93 -105q-27 0 -76.5 14t-76.5 14q-23 0 -32 -20q-4 -10 -8 -19l-56 11q24 105 98 105q26 0 75.5 -14
t74.5 -14q20 0 30 18q2 3 5 9.5t6 11.5z" />
    <glyph glyph-name="ograve" unicode="&#xf2;" horiz-adv-x="525" 
d="M475 197q0 -97 -60.5 -153t-151.5 -56q-97 0 -155 53t-58 148v118q0 97 60.5 153.5t151.5 56.5q96 0 154.5 -56t58.5 -152v-112zM381 193v121q0 58 -29.5 91.5t-88.5 33.5q-56 0 -87.5 -33.5t-31.5 -94.5v-120q0 -58 29.5 -92t88.5 -34q56 0 87.5 33.5t31.5 94.5z
M313 577h-70l-120 180h103z" />
    <glyph glyph-name="oacute" unicode="&#xf3;" horiz-adv-x="525" 
d="M475 197q0 -97 -60.5 -153t-151.5 -56q-97 0 -155 53t-58 148v118q0 97 60.5 153.5t151.5 56.5q96 0 154.5 -56t58.5 -152v-112zM381 193v121q0 58 -29.5 91.5t-88.5 33.5q-56 0 -87.5 -33.5t-31.5 -94.5v-120q0 -58 29.5 -92t88.5 -34q56 0 87.5 33.5t31.5 94.5z
M402 757l-120 -180h-70l88 180h102z" />
    <glyph glyph-name="ocircumflex" unicode="&#xf4;" horiz-adv-x="525" 
d="M475 197q0 -97 -60.5 -153t-151.5 -56q-97 0 -155 53t-58 148v118q0 97 60.5 153.5t151.5 56.5q96 0 154.5 -56t58.5 -152v-112zM381 193v121q0 58 -29.5 91.5t-88.5 33.5q-56 0 -87.5 -33.5t-31.5 -94.5v-120q0 -58 29.5 -92t88.5 -34q56 0 87.5 33.5t31.5 94.5z
M391 577h-74l-52 108l-58 -108h-73l93 180h75z" />
    <glyph glyph-name="otilde" unicode="&#xf5;" horiz-adv-x="525" 
d="M475 197q0 -97 -60.5 -153t-151.5 -56q-97 0 -155 53t-58 148v118q0 97 60.5 153.5t151.5 56.5q96 0 154.5 -56t58.5 -152v-112zM381 193v121q0 58 -29.5 91.5t-88.5 33.5q-56 0 -87.5 -33.5t-31.5 -94.5v-120q0 -58 29.5 -92t88.5 -34q56 0 87.5 33.5t31.5 94.5z
M433 693q-18 -105 -93 -105q-26 0 -76 14t-76 14q-24 0 -33 -20q-4 -10 -7 -19l-56 11q22 105 98 105q26 0 75 -14t75 -14q19 0 30 18q1 3 4.5 9t5.5 12z" />
    <glyph glyph-name="odieresis" unicode="&#xf6;" horiz-adv-x="525" 
d="M475 197q0 -97 -60.5 -153t-151.5 -56q-97 0 -155 53t-58 148v118q0 97 60.5 153.5t151.5 56.5q96 0 154.5 -56t58.5 -152v-112zM381 193v121q0 58 -29.5 91.5t-88.5 33.5q-56 0 -87.5 -33.5t-31.5 -94.5v-120q0 -58 29.5 -92t88.5 -34q56 0 87.5 33.5t31.5 94.5z
M401 584h-92v118h92v-118zM215 584h-91v118h91v-118z" />
    <glyph glyph-name="divide" unicode="&#xf7;" horiz-adv-x="597" 
d="M344 429h-91v97h91v-97zM524 288h-451v59h451v-59zM344 113h-91v98h91v-98z" />
    <glyph glyph-name="oslash" unicode="&#xf8;" horiz-adv-x="525" 
d="M475 197q0 -97 -60.5 -153t-151.5 -56q-64 0 -114 25l-35 -55l-52 25l40 64q-52 54 -52 142v118q0 97 60.5 153.5t151.5 56.5q65 0 115 -28l34 54l52 -25l-40 -64q52 -55 52 -145v-112zM334 420q-29 19 -71 19q-56 0 -87.5 -33.5t-31.5 -94.5v-120q0 -36 10 -62zM381 193
v121q0 34 -9 59l-179 -290q28 -18 69 -18q56 0 87.5 33.5t31.5 94.5z" />
    <glyph glyph-name="ugrave" unicode="&#xf9;" horiz-adv-x="546" 
d="M479 0h-90v75h-3q-56 -86 -152 -86q-79 0 -122 49t-43 124v344h92v-316q0 -59 27 -90t73 -31q54 0 89.5 39.5t35.5 104.5v293h93v-506zM325 577h-70l-120 180h103z" />
    <glyph glyph-name="uacute" unicode="&#xfa;" horiz-adv-x="546" 
d="M479 0h-90v75h-3q-56 -86 -152 -86q-79 0 -122 49t-43 124v344h92v-316q0 -59 27 -90t73 -31q54 0 89.5 39.5t35.5 104.5v293h93v-506zM425 757l-120 -180h-70l87 180h103z" />
    <glyph glyph-name="ucircumflex" unicode="&#xfb;" horiz-adv-x="546" 
d="M479 0h-90v75h-3q-56 -86 -152 -86q-79 0 -122 49t-43 124v344h92v-316q0 -59 27 -90t73 -31q54 0 89.5 39.5t35.5 104.5v293h93v-506zM400 577h-74l-52 108l-58 -108h-73l93 180h75z" />
    <glyph glyph-name="udieresis" unicode="&#xfc;" horiz-adv-x="546" 
d="M479 0h-90v75h-3q-56 -86 -152 -86q-79 0 -122 49t-43 124v344h92v-316q0 -59 27 -90t73 -31q54 0 89.5 39.5t35.5 104.5v293h93v-506zM407 584h-92v118h92v-118zM220 584h-91v118h91v-118z" />
    <glyph glyph-name="yacute" unicode="&#xfd;" horiz-adv-x="493" 
d="M475 507l-212 -589q-41 -115 -159 -115q-29 0 -65 6v78q36 -6 61 -6q58 0 77 51l29 78l-185 497h100l131 -383h2l127 383h94zM402 757l-120 -180h-70l88 180h102z" />
    <glyph glyph-name="thorn" unicode="&#xfe;" horiz-adv-x="546" 
d="M496 180q0 -93 -57 -142.5t-138 -49.5q-42 0 -78.5 17.5t-55.5 46.5h-3v-252h-92v913h92v-277h2q54 81 144 81q83 0 134.5 -49.5t51.5 -132.5v-155zM402 178v152q0 48 -29.5 78t-83.5 30q-47 0 -86 -36.5t-39 -90.5v-128q0 -53 38 -86t88 -33q46 0 79 29t33 85z" />
    <glyph glyph-name="ydieresis" unicode="&#xff;" horiz-adv-x="493" 
d="M391 594h-81v102h81v-102zM198 594h-80v102h80v-102zM475 506l-212 -588q-41 -115 -159 -115q-29 0 -65 6v78q36 -6 61 -6q58 0 77 51l29 78l-185 497h100l131 -383h2l127 382h94z" />
    <glyph glyph-name="dotlessi" unicode="&#x131;" horiz-adv-x="236" 
d="M164 0h-92v506h92v-506z" />
    <glyph glyph-name="Lslash" unicode="&#x141;" horiz-adv-x="553" 
d="M523 0h-446v305l-54 -27v82l54 27v326h99v-276l121 62v-82l-121 -61v-269h347v-87z" />
    <glyph glyph-name="lslash" unicode="&#x142;" horiz-adv-x="299" 
d="M276 5q-47 -14 -84 -14q-121 0 -121 130v197l-48 -24v82l48 23v314h92v-268l71 34v-82l-71 -34v-240q0 -54 52 -54q19 0 61 6v-70z" />
    <glyph glyph-name="OE" unicode="&#x152;" horiz-adv-x="1017" 
d="M959 0h-454v45q-71 -57 -179 -57q-117 0 -192 63t-75 178v237q0 119 76 189.5t191 70.5q110 0 179 -54v41h452v-87h-355v-215h297v-87h-297v-237h357v-87zM504 225v266q0 68 -48.5 107.5t-126.5 39.5q-74 0 -122 -44t-48 -123v-236q0 -75 48 -117.5t126 -42.5
q73 0 122 39t49 111z" />
    <glyph glyph-name="oe" unicode="&#x153;" horiz-adv-x="835" 
d="M803 225h-327v-37q0 -56 38.5 -90t95.5 -34q68 0 117 65l69 -41q-65 -100 -192 -100q-114 0 -176 70q-61 -70 -165 -70q-96 0 -154.5 53t-58.5 148v118q0 95 59 152.5t153 57.5q110 0 169 -72q62 72 169 72q90 0 146.5 -53t56.5 -143v-96zM715 291v30q0 53 -31 86t-84 33
q-57 0 -90.5 -34.5t-33.5 -91.5v-23h239zM381 192v122q0 59 -30 92t-88 33t-88.5 -34.5t-30.5 -93.5v-120q0 -59 30 -92.5t88 -33.5t88.5 34t30.5 93z" />
    <glyph glyph-name="Scaron" unicode="&#x160;" horiz-adv-x="610" 
d="M438 962l-93 -180h-75l-89 180h74l52 -108l58 108h73zM564 204q0 -100 -73.5 -158t-184.5 -58q-104 0 -176 48t-94 136l94 29q18 -58 63.5 -92.5t114.5 -34.5q63 0 109.5 31t46.5 89q0 48 -31.5 74.5t-89.5 41.5q-88 23 -143 43q-126 47 -126 169q0 95 66 149t168 54
q191 0 244 -143l-85 -36q-45 95 -160 95q-55 0 -94.5 -29t-39.5 -80q0 -72 101 -100q6 -2 41 -12t66 -19.5t42 -13.5q141 -48 141 -183z" />
    <glyph glyph-name="scaron" unicode="&#x161;" horiz-adv-x="494" 
d="M375 767l-93 -180h-75l-89 180h74l52 -108l58 108h73zM457 153q0 -78 -64 -121.5t-148 -43.5q-146 0 -214 86l64 55q60 -66 149 -66q48 0 82.5 19.5t34.5 56.5q0 35 -22 49.5t-75 26.5l-67 15q-136 31 -136 130q0 72 52.5 115t137.5 43q127 0 183 -67l-62 -53
q-27 25 -54.5 35.5t-69.5 10.5q-41 0 -67.5 -19t-26.5 -50q0 -29 22.5 -43t65.5 -23l79 -17q59 -13 97.5 -47.5t38.5 -91.5z" />
    <glyph glyph-name="Ydieresis" unicode="&#x178;" horiz-adv-x="584" 
d="M432 786h-81v101h81v-101zM239 786h-80v101h80v-101zM572 713l-232 -418v-295h-97v295l-231 418h108l173 -325l174 325h105z" />
    <glyph glyph-name="Zcaron" unicode="&#x17d;" horiz-adv-x="575" 
d="M438 962l-93 -180h-75l-89 180h74l52 -108l58 108h73zM531 0h-487v75l363 553h-346v85h469v-70l-363 -557h364v-86z" />
    <glyph glyph-name="zcaron" unicode="&#x17e;" horiz-adv-x="478" 
d="M379 767l-93 -180h-75l-89 180h74l52 -108l58 108h73zM432 0h-391v73l271 358h-258v75h373v-71l-272 -359h277v-76z" />
    <glyph glyph-name="florin" unicode="&#x192;" horiz-adv-x="341" 
d="M312 639q-3 0 -19.5 2t-24.5 2q-28 0 -44.5 -15t-16.5 -41v-192h100v-70h-100v-518h-92v518h-84v70h84v171q0 153 142 153q10 0 30 -2.5t25 -2.5v-75z" />
    <glyph glyph-name="circumflex" unicode="&#x2c6;" horiz-adv-x="372" 
d="M315 577h-74l-52 108l-58 -108h-73l93 180h75z" />
    <glyph glyph-name="caron" unicode="&#x2c7;" horiz-adv-x="372" 
d="M314 767l-93 -180h-75l-89 180h74l52 -108l58 108h73z" />
    <glyph glyph-name="breve" unicode="&#x2d8;" horiz-adv-x="379" 
d="M341 733q0 -72 -46 -110.5t-105 -38.5q-63 0 -107.5 40.5t-44.5 108.5h62q2 -40 27 -64t67 -24q33 0 59.5 23.5t27.5 64.5h60z" />
    <glyph glyph-name="dotaccent" unicode="&#x2d9;" horiz-adv-x="233" 
d="M161 603h-88v102h88v-102z" />
    <glyph glyph-name="ring" unicode="&#x2da;" horiz-adv-x="310" 
d="M254 668q0 -41 -29.5 -69.5t-70.5 -28.5q-46 0 -72 27t-26 65q0 41 28 70t70 29q47 0 73.5 -26t26.5 -67zM202 665q0 21 -12.5 36t-35.5 15q-21 0 -33.5 -14.5t-12.5 -36.5q0 -21 13.5 -35.5t32.5 -14.5q20 0 34 14.5t14 35.5z" />
    <glyph glyph-name="ogonek" unicode="&#x2db;" horiz-adv-x="400" 
d="M282 -186q-40 -12 -72 -12q-48 0 -75.5 20.5t-27.5 58.5q0 45 36.5 80t91.5 55l40 -16q-97 -49 -97 -101q0 -50 57 -50q27 0 47 5v-40z" />
    <glyph glyph-name="tilde" unicode="&#x2dc;" horiz-adv-x="458" 
d="M400 693q-18 -105 -93 -105q-27 0 -77 14t-76 14q-24 0 -32 -20q-4 -10 -8 -19l-56 11q22 105 98 105q26 0 75.5 -14t74.5 -14q20 0 30 18q2 3 10 21z" />
    <glyph glyph-name="hungarumlaut" unicode="&#x2dd;" horiz-adv-x="450" 
d="M402 757l-120 -180h-70l87 180h103zM238 757l-120 -180h-70l87 180h103z" />
    <glyph glyph-name="Delta" unicode="&#x394;" 
 />
    <glyph glyph-name="Omega" unicode="&#x3a9;" 
 />
    <glyph glyph-name="pi" unicode="&#x3c0;" 
 />
    <glyph glyph-name="endash" unicode="&#x2013;" horiz-adv-x="573" 
d="M541 247h-509v65h509v-65z" />
    <glyph glyph-name="emdash" unicode="&#x2014;" horiz-adv-x="875" 
d="M843 247h-811v64h811v-64z" />
    <glyph glyph-name="quoteleft" unicode="&#x2018;" horiz-adv-x="243" 
d="M171 478h-101v125l42 113h54l-28 -111h33v-127z" />
    <glyph glyph-name="quoteright" unicode="&#x2019;" horiz-adv-x="243" 
d="M174 590l-43 -112h-54l28 110h-33v128h102v-126z" />
    <glyph glyph-name="quotesinglbase" unicode="&#x201a;" horiz-adv-x="246" 
d="M174 5l-43 -112h-54l28 110h-33v128h102v-126z" />
    <glyph glyph-name="quotedblleft" unicode="&#x201c;" horiz-adv-x="410" 
d="M338 478h-102v125l43 113h53l-27 -111h33v-127zM171 478h-101v125l42 113h54l-28 -111h33v-127z" />
    <glyph glyph-name="quotedblright" unicode="&#x201d;" horiz-adv-x="410" 
d="M340 590l-43 -112h-53l27 110h-32v128h101v-126zM174 590l-43 -112h-54l28 110h-33v128h102v-126z" />
    <glyph glyph-name="quotedblbase" unicode="&#x201e;" horiz-adv-x="410" 
d="M340 5l-43 -112h-53l27 110h-32v128h101v-126zM174 5l-43 -112h-54l28 110h-33v128h102v-126z" />
    <glyph glyph-name="dagger" unicode="&#x2020;" horiz-adv-x="550" 
d="M482 474h-171v-627h-72v627h-171v65h171v175h72v-175h171v-65z" />
    <glyph glyph-name="daggerdbl" unicode="&#x2021;" horiz-adv-x="550" 
d="M482 26h-171v-179h-72v179h-171v64h171v384h-171v65h171v175h72v-175h171v-65h-171v-384h171v-64z" />
    <glyph glyph-name="bullet" unicode="&#x2022;" horiz-adv-x="385" 
d="M276 363q0 -35 -24 -59t-59 -24t-59 24t-24 59t24 59t59 24t59 -24t24 -59z" />
    <glyph glyph-name="ellipsis" unicode="&#x2026;" horiz-adv-x="685" 
d="M595 0h-101v131h101v-131zM393 0h-101v131h101v-131zM191 0h-102v131h102v-131z" />
    <glyph glyph-name="perthousand" unicode="&#x2030;" horiz-adv-x="1119" 
d="M1054 109q0 -58 -40 -89t-97 -31q-59 0 -96.5 30.5t-37.5 90.5v133q0 62 38 93.5t97 31.5t97.5 -31.5t38.5 -93.5v-134zM724 109q0 -58 -40 -89t-98 -31q-59 0 -96.5 30.5t-37.5 90.5v133q0 62 38.5 93.5t96.5 31.5q59 0 98 -31.5t39 -93.5v-134zM336 468q0 -58 -40 -89
t-97 -31q-59 0 -96.5 30.5t-37.5 90.5v133q0 62 38 93t97 31t97.5 -31t38.5 -93v-134zM984 109v140q0 63 -66 63q-65 0 -65 -63v-140q0 -62 64 -62q34 0 50.5 17t16.5 45zM653 109v140q0 63 -65 63t-65 -63v-140q0 -62 63 -62q67 0 67 62zM265 468v140q0 63 -65 63t-65 -63
v-141q0 -62 63 -62q67 0 67 63zM675 726l-477 -737h-79l479 737h77z" />
    <glyph glyph-name="guilsinglleft" unicode="&#x2039;" horiz-adv-x="331" 
d="M290 117l-49 -44l-200 197l199 198l48 -46l-144 -152z" />
    <glyph glyph-name="guilsinglright" unicode="&#x203a;" horiz-adv-x="331" 
d="M290 270l-199 -197l-49 45l145 152l-145 153l48 45z" />
    <glyph glyph-name="fraction" unicode="&#x2044;" horiz-adv-x="549" 
d="M528 727l-438 -764h-77l440 764h75z" />
    <glyph glyph-name="Euro" unicode="&#x20ac;" horiz-adv-x="746" 
d="M689 199q0 -101 -75 -156t-179 -55q-120 0 -198.5 61.5t-78.5 179.5v13h-117v65h117v93h-117v65h117v5q0 114 76.5 185t195.5 71q111 0 185 -57.5t74 -153.5v-25h-94v14q0 64 -46 99.5t-121 35.5q-74 0 -122 -43t-48 -119v-12h211v-65h-211v-93h211v-65h-211v-7
q0 -75 48 -118t126 -43q74 0 118 35.5t44 99.5v15h95v-25z" />
    <glyph glyph-name="trademark" unicode="&#x2122;" horiz-adv-x="645" 
d="M584 412h-57v207l-60 -148h-41l-60 148v-207h-55v306h73l63 -158l64 158h73v-306zM269 665h-81v-253h-59v253h-82v53h222v-53z" />
    <glyph glyph-name="partialdiff" unicode="&#x2202;" 
 />
    <glyph glyph-name="product" unicode="&#x220f;" 
 />
    <glyph glyph-name="summation" unicode="&#x2211;" 
 />
    <glyph glyph-name="minus" unicode="&#x2212;" horiz-adv-x="597" 
d="M495 288h-393v58h393v-58z" />
    <glyph glyph-name="radical" unicode="&#x221a;" 
 />
    <glyph glyph-name="infinity" unicode="&#x221e;" 
 />
    <glyph glyph-name="integral" unicode="&#x222b;" 
 />
    <glyph glyph-name="approxequal" unicode="&#x2248;" 
 />
    <glyph glyph-name="notequal" unicode="&#x2260;" 
 />
    <glyph glyph-name="lessequal" unicode="&#x2264;" 
 />
    <glyph glyph-name="greaterequal" unicode="&#x2265;" 
 />
    <glyph glyph-name="lozenge" unicode="&#x25ca;" 
 />
    <glyph glyph-name="apple" unicode="&#xf8ff;" horiz-adv-x="597" 
d="M495 288h-393v58h393v-58z" />
    <glyph glyph-name="fi" unicode="&#xfb01;" horiz-adv-x="566" 
d="M494 608h-92v109h92v-109zM494 0h-92v506h92v-506zM308 641q-26 2 -40 2q-28 0 -44.5 -15t-16.5 -41v-86h99v-70h-99v-431h-92v431h-84v70h84v65q0 153 142 153q3 0 51 -3v-75z" />
    <glyph glyph-name="fl" unicode="&#xfb02;" horiz-adv-x="629" 
d="M605 2q-34 -11 -81 -11q-66 0 -95 41t-29 98v587h93v-583q0 -65 48 -65q36 0 64 4v-71zM308 641q-26 2 -40 2q-28 0 -44.5 -15t-16.5 -41v-86h99v-70h-99v-431h-92v431h-84v70h84v65q0 153 142 153q3 0 51 -3v-75z" />
    <glyph glyph-name="CR" 
 />
    <glyph glyph-name="RS" 
 />
    <glyph glyph-name="US" 
 />
    </font>
</defs>
</svg>
