<?xml version="1.0" standalone="no"?>
<!DOCTYPE svg PUBLIC "-//W3C//DTD SVG 1.1//EN" "http://www.w3.org/Graphics/SVG/1.1/DTD/svg11.dtd" >
<svg xmlns="http://www.w3.org/2000/svg" xmlns:xlink="http://www.w3.org/1999/xlink" version="1.1">
<metadata>
Created by FontForge 20170731 at Tue Aug 29 14:39:50 2006
 By Aleksey,,,
Copyrighted (c) 1981, 1997 by and the property of Linotype-Hell AG and/or its subsidiaries. All Rights Reserved. All Cyrillic characters designed by DoubleAlex. Helvetica is a registered Trademark of Linotype-Hell AG and/or its subsidiaries.
</metadata>
<defs>
<font id="HelveticaNeueCyr-BoldItalic" horiz-adv-x="556" >
  <font-face 
    font-family="HelveticaNeueCyr"
    font-weight="700"
    font-style="italic"
    font-stretch="normal"
    units-per-em="1000"
    panose-1="2 0 8 3 5 0 0 9 0 4"
    ascent="800"
    descent="-200"
    x-height="516"
    cap-height="712"
    bbox="-135 -214 1118 904"
    underline-thickness="50"
    underline-position="-200"
    slope="-12"
    unicode-range="U+0020-E001"
  />
<missing-glyph horiz-adv-x="1000" 
 />
    <glyph glyph-name=".notdef" horiz-adv-x="1000" 
 />
    <glyph glyph-name=".null" horiz-adv-x="0" 
 />
    <glyph glyph-name="nonmarkingreturn" horiz-adv-x="333" 
 />
    <glyph glyph-name="space" unicode=" " horiz-adv-x="278" 
 />
    <glyph glyph-name="exclam" unicode="!" horiz-adv-x="296" 
d="M181 148l-31 -148h-152l32 148h151zM299 712l-41 -191l-104 -307h-70l25 305l41 193h149z" />
    <glyph glyph-name="quotedbl" unicode="&#x22;" horiz-adv-x="481" 
d="M192 375h-68l43 319h104zM366 375h-68l43 319h105z" />
    <glyph glyph-name="numbersign" unicode="#" 
d="M141 0h-98l41 192h-91l19 84h91l30 141h-91l19 85h91l41 192h98l-41 -192h108l42 192h98l-42 -192h91l-18 -85h-91l-31 -141h91l-18 -84h-91l-42 -192h-98l42 192h-109zM309 276l31 141h-109l-30 -141h108z" />
    <glyph glyph-name="dollar" unicode="$" 
d="M392 787l-17 -79q81 -9 134.5 -52.5t53.5 -121.5q0 -4 -0.5 -13.5t-0.5 -15.5h-133q1 7 1 18q0 34 -20.5 56t-56.5 26l-40 -189q106 -25 156 -71.5t50 -119.5q0 -109 -79.5 -173.5t-192.5 -64.5h-25l-18 -87h-48l19 88q-94 7 -151 61.5t-57 136.5q0 22 1 35h142
q-2 -18 -2 -19q0 -91 90 -106l45 212q-45 13 -73.5 24.5t-59.5 32t-46 52.5t-15 75q0 99 71.5 159t188.5 60q11 0 19 -1l16 77h48zM268 430l38 179h-7q-50 0 -81.5 -27.5t-31.5 -71.5q0 -19 6 -32.5t19.5 -22.5t24 -13.5t32.5 -11.5zM288 294l-44 -202q2 0 5 -0.5t4 -0.5
q53 0 88.5 32t35.5 80q0 35 -21 56t-68 35z" />
    <glyph glyph-name="percent" unicode="%" horiz-adv-x="963" 
d="M780 719l-515 -746h-94l516 746h93zM727 372q74 0 115 -39t41 -109q0 -93 -52 -167q-51 -72 -149 -72q-68 0 -106.5 39t-38.5 108q0 103 54.5 171.5t135.5 68.5zM783 238q0 29 -14.5 45.5t-39.5 16.5q-35 0 -54 -30q-15 -22 -27 -70t-12 -84q0 -28 14.5 -44t39.5 -16
q38 0 59 40q13 25 23.5 68.5t10.5 73.5zM265 703q74 0 115 -39t41 -109q0 -93 -52 -167q-51 -72 -149 -72q-68 0 -106.5 39t-38.5 108q0 103 54.5 171.5t135.5 68.5zM321 569q0 29 -14.5 45.5t-39.5 16.5q-35 0 -54 -30q-15 -22 -27 -70t-12 -84q0 -28 14.5 -44t39.5 -16
q38 0 59 40q13 25 23.5 68.5t10.5 73.5z" />
    <glyph glyph-name="ampersand" unicode="&#x26;" horiz-adv-x="685" 
d="M637 342q-20 -110 -112 -202l90 -140h-155l-34 56q-84 -71 -188 -71q-98 0 -159 56t-61 145q0 146 191 223q-27 44 -36.5 72t-9.5 61q0 77 55 127t140 50q81 0 133 -44.5t52 -113.5q0 -60 -38 -106t-124 -89l77 -124q34 34 52 100h127zM326 452q101 50 101 108
q0 27 -18.5 43.5t-47.5 16.5q-32 0 -53 -20.5t-21 -52.5q0 -29 39 -95zM271 314q-33 -16 -55 -29t-42.5 -39.5t-20.5 -56.5q0 -38 25.5 -63t65.5 -25q65 0 119 57z" />
    <glyph glyph-name="quotesingle" unicode="'" horiz-adv-x="278" 
d="M175 375h-65l41 319h107z" />
    <glyph glyph-name="parenleft" unicode="(" horiz-adv-x="296" 
d="M379 717q-221 -281 -221 -613q0 -154 38 -287h-109q-62 161 -62 329q0 154 62 300.5t170 270.5h122z" />
    <glyph glyph-name="parenright" unicode=")" horiz-adv-x="296" 
d="M181 717q62 -151 62 -326q0 -303 -231 -574h-122q220 283 220 616q0 139 -37 284h108z" />
    <glyph glyph-name="asterisk" unicode="*" horiz-adv-x="407" 
d="M312 714l-23 -127l121 22l14 -78l-119 -18l56 -106l-72 -38l-55 109l-86 -97l-58 56l90 92l-109 52l35 72l108 -56l18 120z" />
    <glyph glyph-name="plus" unicode="+" horiz-adv-x="600" 
d="M223 0v209h-206v101h206v209h108v-209h206v-101h-206v-209h-108z" />
    <glyph glyph-name="comma" unicode="," horiz-adv-x="278" 
d="M176 156l-28 -131q-20 -97 -63.5 -143.5t-134.5 -47.5l15 70q44 7 63.5 28.5t27.5 67.5h-71l33 156h158z" />
    <glyph glyph-name="hyphen" unicode="-" horiz-adv-x="407" 
d="M352 334l-27 -123h-301l27 123h301z" />
    <glyph glyph-name="period" unicode="." horiz-adv-x="278" 
d="M179 156l-34 -156h-162l34 156h162z" />
    <glyph glyph-name="slash" unicode="/" horiz-adv-x="389" 
d="M468 729l-421 -750h-128l422 750h127z" />
    <glyph glyph-name="zero" unicode="0" 
d="M328 703q107 0 167 -66t60 -185q0 -77 -19.5 -155.5t-57.5 -149t-104 -115t-148 -44.5q-110 0 -168 70.5t-58 183.5q0 60 11.5 122.5t38 123.5t63.5 108.5t93 77t122 29.5zM419 464q0 126 -99 126q-66 0 -107 -65q-34 -54 -55 -140t-21 -156q0 -62 26 -95t76 -33
q62 0 102 61q33 53 55.5 138t22.5 164z" />
    <glyph glyph-name="one" unicode="1" 
d="M469 699l-149 -699h-149l102 478l-8 -1q-66 -8 -133 -8h-32l23 105q89 2 143 31t88 94h115z" />
    <glyph glyph-name="two" unicode="2" 
d="M505 120l-28 -120h-521q4 43 14.5 77.5t32.5 64.5t41 50.5t58.5 46.5t66.5 41.5t82 44.5q44 24 67.5 38t49 35t36 44t10.5 51q0 42 -28 67t-75 25q-60 0 -93 -38t-40 -100h-134q11 119 82.5 188t194.5 69q108 0 172.5 -54.5t64.5 -145.5q0 -50 -18 -90.5t-59 -76t-68 -53
t-83 -49.5q-4 -3 -6.5 -4.5t-5.5 -2.5q-124 -71 -163 -108h350z" />
    <glyph glyph-name="three" unicode="3" 
d="M115 239q-1 -10 -1 -22q0 -53 31.5 -82.5t88.5 -29.5t94 34t37 88q0 89 -116 89q-17 0 -35 -1l20 99h47q54 0 91.5 22.5t37.5 73.5q0 38 -27 59.5t-74 21.5q-107 0 -128 -115h-133q17 110 87.5 169.5t185.5 59.5q102 0 164 -48.5t62 -127.5q0 -62 -35 -103.5t-96 -58.5
q45 -14 70 -50t25 -88q0 -113 -85 -178t-201 -65q-113 0 -180 58.5t-67 155.5q0 12 3 39h134z" />
    <glyph glyph-name="four" unicode="4" 
d="M541 274l-25 -114h-93l-33 -160h-136l33 160h-321l28 126l406 415h136l-88 -427h93zM311 274l55 262l-252 -262h197z" />
    <glyph glyph-name="five" unicode="5" 
d="M556 694l-25 -121h-299l-45 -143q53 39 127 39q93 0 149.5 -56.5t56.5 -148.5q0 -121 -83.5 -199t-202.5 -78q-107 0 -180 50t-73 152q0 8 1 15h138v-4q0 -45 31 -72t83 -27q63 0 103 42t40 107q0 54 -31 85t-85 31q-73 0 -113 -57h-127l121 385h414z" />
    <glyph glyph-name="six" unicode="6" 
d="M574 518h-137q-9 81 -92 81q-119 0 -177 -205q62 68 154 68t149 -56.5t57 -148.5q0 -116 -77.5 -193t-194.5 -77q-115 0 -179.5 72t-64.5 199q0 80 21 157t61.5 143t108 106.5t152.5 40.5q99 0 159 -51t60 -136zM276 361q-55 0 -91 -40.5t-36 -101.5q0 -54 31 -86.5
t83 -32.5q54 0 90.5 42t36.5 104q0 53 -30.5 84t-83.5 31z" />
    <glyph glyph-name="seven" unicode="7" 
d="M592 694l-25 -116q-264 -258 -343 -578h-159q35 147 133 306t214 260h-343l27 128h496z" />
    <glyph glyph-name="eight" unicode="8" 
d="M415 368q52 -17 80.5 -57t28.5 -96q0 -104 -81.5 -165t-199.5 -61q-114 0 -187.5 51t-73.5 153q0 72 47 122.5t126 61.5q-87 41 -87 133q0 87 68 141t177 54q108 0 172 -47.5t64 -128.5q0 -62 -36.5 -106t-97.5 -55zM308 602q-51 0 -81.5 -27t-30.5 -73q0 -42 28.5 -65.5
t79.5 -23.5q53 0 83 27t31 74q0 42 -28.5 65t-81.5 23zM260 321q-63 0 -100 -33t-37 -89q0 -49 32.5 -77t90.5 -28q62 0 99 34.5t37 90.5q0 49 -32 75.5t-90 26.5z" />
    <glyph glyph-name="nine" unicode="9" 
d="M-10 177h131q9 -84 97 -84q42 0 73.5 18t50 51t29 64.5t18.5 73.5q-59 -69 -155 -69q-91 0 -146.5 57t-55.5 150q0 116 78.5 192t197.5 76q112 0 175 -69t63 -193q0 -81 -18.5 -158t-56 -146t-104 -111t-153.5 -42q-105 0 -164.5 50.5t-59.5 139.5zM299 592
q-55 0 -93 -42.5t-38 -103.5q0 -52 29 -82t79 -30q58 0 95.5 40.5t37.5 103.5q0 52 -30 83t-80 31z" />
    <glyph glyph-name="colon" unicode=":" horiz-adv-x="278" 
d="M179 156l-34 -156h-162l34 156h162zM251 509l-34 -156h-162l34 156h162z" />
    <glyph glyph-name="semicolon" unicode=";" horiz-adv-x="278" 
d="M176 156l-28 -131q-20 -97 -63.5 -143.5t-134.5 -47.5l15 70q44 7 63.5 28.5t27.5 67.5h-71l33 156h158zM251 509l-34 -156h-162l34 156h162z" />
    <glyph glyph-name="less" unicode="&#x3c;" horiz-adv-x="600" 
d="M12 207v105l520 200v-122l-362 -130l362 -130v-124z" />
    <glyph glyph-name="equal" unicode="=" horiz-adv-x="600" 
d="M24 308v112h520v-112h-520zM24 99v112h520v-112h-520z" />
    <glyph glyph-name="greater" unicode="&#x3e;" horiz-adv-x="600" 
d="M560 207l-520 -201v124l362 130l-362 130v122l520 -200v-105z" />
    <glyph glyph-name="question" unicode="?" horiz-adv-x="574" 
d="M313 148l-31 -148h-152l31 148h152zM317 216h-132q10 70 36 113t84 76q2 1 18.5 10.5t21 12t18.5 11.5t19 14.5t15 15.5t13.5 18t7 19.5t3.5 23.5q0 35 -23.5 56t-63.5 21q-54 0 -82.5 -34t-35.5 -87h-142q12 110 84.5 174.5t184.5 64.5q104 0 166 -48.5t62 -130.5
q0 -33 -9.5 -61.5t-22 -47.5t-38 -39t-43.5 -31.5t-52 -30.5q-44 -25 -61 -47.5t-28 -72.5z" />
    <glyph glyph-name="at" unicode="@" horiz-adv-x="800" 
d="M694 130l29 -40q-78 -57 -150 -82t-156 -25q-167 0 -274 99q-113 104 -113 264q0 162 116 272.5t286 110.5q149 0 243.5 -84t94.5 -216q0 -104 -62 -183.5t-144 -79.5q-39 0 -62 19.5t-23 53.5q0 12 2 20q-48 -93 -138 -93q-61 0 -98.5 42.5t-37.5 110.5q0 97 60.5 169.5
t140.5 72.5q82 0 113 -68l14 52h85l-65 -223q-10 -36 -10 -54q0 -40 41 -40q49 0 88.5 64t39.5 142q0 108 -78 175.5t-203 67.5q-149 0 -248 -95t-99 -239q0 -136 93.5 -222.5t240.5 -86.5q142 0 274 96zM490 434q0 29 -16.5 47.5t-44.5 18.5q-52 0 -87 -65t-35 -121
q0 -41 16.5 -63.5t46.5 -22.5q35 0 64.5 40t42.5 86.5t13 79.5z" />
    <glyph glyph-name="A" unicode="A" horiz-adv-x="685" 
d="M506 712l119 -712h-156l-24 159h-265l-91 -159h-166l422 712h161zM241 274h191l-39 270z" />
    <glyph glyph-name="B" unicode="B" horiz-adv-x="722" 
d="M148 712h270q44 0 72.5 -1.5t68 -10.5t63 -26t40.5 -49t17 -78q0 -65 -36 -111t-97 -58q102 -34 102 -145q0 -75 -44.5 -137.5t-116.5 -81.5q-52 -14 -160 -14h-330zM274 591l-36 -169h143q30 0 52 3.5t44.5 13t34 30.5t11.5 52q0 21 -9 35t-19 21t-31 10t-31 3.5
t-33 0.5h-126zM216 317l-42 -195h148q37 0 61 3t53 12.5t44 33.5t15 61q0 21 -5.5 37t-20 25t-23.5 14t-33 7t-31 2h-34h-132z" />
    <glyph glyph-name="C" unicode="C" horiz-adv-x="741" 
d="M687 255q-23 -127 -115 -199.5t-225 -72.5q-143 0 -223 83t-80 231q0 181 105.5 306t283.5 125q128 0 205.5 -68t77.5 -180v-15h-151q-3 70 -37 103t-105 33q-55 0 -99.5 -28.5t-70.5 -74t-39.5 -97t-13.5 -103.5q0 -89 41.5 -139t115.5 -50q66 0 111.5 38t62.5 108h156z
" />
    <glyph glyph-name="D" unicode="D" horiz-adv-x="741" 
d="M147 712h184q100 0 140.5 -4.5t79.5 -18.5q73 -27 115 -98.5t42 -168.5q0 -82 -27 -160t-75 -134q-67 -79 -146 -103.5t-201 -24.5h-262zM274 582l-96 -453h94q58 0 99 8t76 35q47 36 76 102.5t29 138.5q0 89 -45.5 129t-136.5 40h-96z" />
    <glyph glyph-name="E" unicode="E" horiz-adv-x="667" 
d="M693 712l-26 -127h-387l-33 -157h359l-26 -122h-359l-38 -176h395l-28 -130h-549l151 712h541z" />
    <glyph glyph-name="F" unicode="F" horiz-adv-x="593" 
d="M655 712l-27 -131h-353l-36 -166h308l-26 -123h-308l-62 -292h-156l151 712h509z" />
    <glyph glyph-name="G" unicode="G" horiz-adv-x="759" 
d="M718 384l-80 -384h-100v71q-75 -88 -208 -88q-139 0 -215 83.5t-76 223.5q0 187 108.5 312t294.5 125q125 0 205 -64t80 -186h-150q-9 122 -144 122q-60 0 -107 -28t-74.5 -73.5t-42 -98.5t-14.5 -109q0 -89 43.5 -137t123.5 -48q151 0 194 164h-164l25 115h301z" />
    <glyph glyph-name="H" unicode="H" horiz-adv-x="741" 
d="M749 712l-151 -712h-156l65 307h-290l-65 -307h-156l151 712h156l-58 -273h290l58 273h156z" />
    <glyph glyph-name="I" unicode="I" horiz-adv-x="296" 
d="M303 712l-151 -712h-156l151 712h156z" />
    <glyph glyph-name="J" unicode="J" 
d="M568 712l-96 -454q-12 -57 -22.5 -92.5t-31 -74t-47 -59.5t-69 -35t-99.5 -14q-101 0 -158 46.5t-57 130.5q0 37 13 106h144q-13 -67 -13 -86q0 -35 20 -54t56 -19q23 0 40 8.5t26.5 17.5t18 31.5t11 33t8.5 39.5l100 475h156z" />
    <glyph glyph-name="K" unicode="K" horiz-adv-x="722" 
d="M775 712l-342 -293l218 -419h-176l-163 320l-112 -95l-48 -225h-155l151 712h155l-61 -292l327 292h206z" />
    <glyph glyph-name="L" unicode="L" horiz-adv-x="574" 
d="M306 712l-123 -580h348l-28 -132h-504l151 712h156z" />
    <glyph glyph-name="M" unicode="M" horiz-adv-x="907" 
d="M-5 0l155 712h217l53 -515l276 515h222l-154 -712h-147l130 567l-304 -567h-120l-70 568l-108 -568h-150z" />
    <glyph glyph-name="N" unicode="N" horiz-adv-x="741" 
d="M-7 0l152 712h162l195 -506l103 506h147l-154 -712h-157l-197 501l-103 -501h-148z" />
    <glyph glyph-name="O" unicode="O" horiz-adv-x="778" 
d="M424 727q150 0 235 -80.5t85 -223.5q0 -188 -107 -314.5t-290 -126.5q-145 0 -227 84t-82 232q0 185 110 307t276 122zM420 600q-73 0 -127 -49.5t-77 -116.5t-23 -138q0 -88 44 -138t121 -50q74 0 128 51.5t77 120.5t23 140q0 86 -43 133t-123 47z" />
    <glyph glyph-name="P" unicode="P" horiz-adv-x="667" 
d="M137 712h277q75 0 125 -14q58 -17 92.5 -68.5t34.5 -119.5q0 -66 -30 -123.5t-81 -89.5q-65 -41 -206 -41h-153l-55 -256h-155zM265 585l-43 -206h159q60 0 96.5 28t36.5 88q0 30 -10.5 49t-31.5 27.5t-41 11t-51 2.5h-115z" />
    <glyph glyph-name="Q" unicode="Q" horiz-adv-x="778" 
d="M682 -10l-84 -69l-88 98q-68 -38 -164 -38q-142 0 -225 85t-83 230q-1 188 111 309.5t285 121.5q145 0 228.5 -82.5t83.5 -225.5q0 -98 -36.5 -187t-107.5 -153zM446 258l64 -72q79 104 79 230q0 88 -42.5 136t-119.5 48q-100 0 -166 -87t-66 -218q0 -86 43 -136.5
t117 -50.5q33 0 68 13l-60 67z" />
    <glyph glyph-name="R" unicode="R" horiz-adv-x="722" 
d="M142 712h298q77 0 124 -10q62 -14 96 -59t34 -113q0 -78 -44 -131.5t-118 -65.5q73 -31 73 -120q0 -25 -2.5 -74.5t-2.5 -74.5q0 -42 10 -64h-155q-7 20 -7 50q0 24 3.5 71t3.5 70q0 54 -27 71t-88 17h-135l-59 -279h-154zM271 589l-42 -198h147q35 0 60 4t50 15t38 35
t13 60q0 51 -32.5 67.5t-91.5 16.5h-142z" />
    <glyph glyph-name="S" unicode="S" horiz-adv-x="648" 
d="M629 500h-148q-4 60 -33 84.5t-94 24.5q-56 0 -89.5 -24t-33.5 -64q0 -10 2.5 -19t8 -16t10.5 -12.5t14.5 -11t15.5 -8.5t18.5 -7t18 -5.5t18.5 -5t16 -4.5q113 -31 154 -56q84 -51 84 -157q0 -80 -46 -134.5t-111.5 -76.5t-144.5 -22q-60 0 -109.5 12.5t-90.5 38.5
t-63.5 73t-22.5 110v17h153v-10q0 -122 148 -122q62 0 99 27t37 73q0 18 -7.5 32t-16 22.5t-26 16.5t-27.5 11t-31 9q-113 32 -153 54q-97 52 -97 156q0 99 76 159t201 60q131 0 200.5 -55.5t69.5 -158.5v-11z" />
    <glyph glyph-name="T" unicode="T" horiz-adv-x="611" 
d="M678 712l-27 -129h-217l-124 -583h-156l124 583h-223l27 129h596z" />
    <glyph glyph-name="U" unicode="U" horiz-adv-x="741" 
d="M751 712l-87 -415q-17 -80 -39.5 -133.5t-60.5 -95.5t-96 -61.5t-141 -19.5q-55 0 -103 11t-90.5 34t-67.5 66.5t-25 101.5q0 35 15 106l86 406h155l-83 -394q-15 -69 -15 -98q0 -49 35 -77.5t97 -28.5q23 0 42.5 4t34 9t27.5 17t21.5 20t17 26.5t12.5 27.5t10.5 33
t8 32.5t7.5 36.5q3 13 4 19l80 373h155z" />
    <glyph glyph-name="V" unicode="V" horiz-adv-x="630" 
d="M72 712h157l48 -534l271 534h163l-380 -712h-177z" />
    <glyph glyph-name="W" unicode="W" horiz-adv-x="944" 
d="M73 712h156l12 -521l226 521h149l21 -519l215 519h160l-334 -712h-156l-19 510l-223 -510h-158z" />
    <glyph glyph-name="X" unicode="X" horiz-adv-x="667" 
d="M727 712l-295 -344l177 -368h-173l-112 252l-204 -252h-190l325 375l-168 337h170l103 -231l182 231h185z" />
    <glyph glyph-name="Y" unicode="Y" horiz-adv-x="648" 
d="M718 712l-350 -442l-57 -270h-153l58 276l-173 436h161l106 -302l222 302h186z" />
    <glyph glyph-name="Z" unicode="Z" horiz-adv-x="648" 
d="M684 712l-26 -125l-471 -457h398l-27 -130h-602l27 130l468 453h-357l28 129h562z" />
    <glyph glyph-name="bracketleft" unicode="[" horiz-adv-x="333" 
d="M414 717l-23 -109h-129l-143 -672h129l-23 -109h-259l189 890h259z" />
    <glyph glyph-name="backslash" unicode="\" horiz-adv-x="389" 
d="M468 -21h-128l-421 750h127z" />
    <glyph glyph-name="bracketright" unicode="]" horiz-adv-x="333" 
d="M79 717h259l-189 -890h-259l23 109h129l143 672h-129z" />
    <glyph glyph-name="asciicircum" unicode="^" horiz-adv-x="600" 
d="M67 268l176 426h114l176 -426h-119l-117 288l-111 -288h-119z" />
    <glyph glyph-name="underscore" unicode="_" horiz-adv-x="500" 
d="M0 -125v50h500v-50h-500z" />
    <glyph glyph-name="grave" unicode="`" horiz-adv-x="259" 
d="M228 583h-97l-142 144h152z" />
    <glyph glyph-name="a" unicode="a" horiz-adv-x="574" 
d="M58 360q32 170 249 170q100 0 156.5 -34t56.5 -94q0 -35 -13 -94l-41 -186q-12 -53 -12 -85q0 -22 4 -37h-140q-1 9 -1 19q0 18 2 32q-61 -67 -163 -67q-76 0 -121 38.5t-45 103.5q0 47 20 81t56.5 53.5t77.5 29.5t94 14q88 7 108 14q38 15 38 61q0 56 -88 56
q-44 0 -68.5 -17.5t-36.5 -57.5h-133zM358 248q-6 -5 -14.5 -8.5t-14 -5.5t-17.5 -4l-15 -2.5t-18 -1.5l-15 -2q-32 -3 -49 -6.5t-39.5 -12t-32.5 -24.5t-10 -40q0 -31 21 -48.5t58 -17.5q105 0 134 121z" />
    <glyph glyph-name="b" unicode="b" horiz-adv-x="611" 
d="M278 712l-54 -253q64 70 155 70q87 0 138 -57t51 -155q0 -85 -29.5 -158.5t-93 -123.5t-149.5 -50q-122 0 -160 96l-16 -81h-135l152 712h141zM426 306q0 56 -26.5 86t-76.5 30t-86.5 -37t-51 -84.5t-14.5 -96.5q0 -50 28 -80t75 -30q72 0 112 67.5t40 144.5z" />
    <glyph glyph-name="c" unicode="c" 
d="M508 188q-53 -204 -256 -204q-239 0 -239 225q0 137 80 228.5t216 91.5q98 0 160.5 -48.5t62.5 -143.5h-137q0 89 -91 89q-52 0 -88 -37.5t-49.5 -85t-13.5 -98.5q0 -118 103 -118q82 0 112 101h140z" />
    <glyph glyph-name="d" unicode="d" horiz-adv-x="611" 
d="M635 712l-150 -712h-135l15 66q-29 -42 -66.5 -61t-92.5 -19q-94 0 -144.5 56t-50.5 154q0 62 18 121t51.5 107t86.5 77t118 29q113 0 153 -84l57 266h140zM305 419q-52 0 -87.5 -36t-49.5 -82.5t-14 -97.5q0 -52 26 -80t74 -28q51 0 88 37.5t51.5 86t14.5 98.5
q0 47 -28 74.5t-75 27.5z" />
    <glyph glyph-name="e" unicode="e" horiz-adv-x="574" 
d="M504 157q-25 -88 -93.5 -131t-164.5 -43q-113 0 -174.5 59.5t-61.5 171.5q0 138 82.5 227t210.5 89q107 0 169 -60.5t62 -164.5q0 -31 -8 -82h-380q-1 -11 -1 -24q0 -55 29 -85.5t81 -30.5q79 0 110 74h139zM160 309h240v15q0 50 -27 78t-74 28q-50 0 -87 -32t-52 -89z
" />
    <glyph glyph-name="f" unicode="f" horiz-adv-x="352" 
d="M368 516l-20 -98h-100l-89 -418h-142l89 418h-85l22 98h84l5 21q11 47 21.5 75t31 54.5t53.5 38t82 11.5q32 0 98 -6l-21 -102q-24 3 -49 3q-38 0 -52 -17t-25 -58l-5 -20h102z" />
    <glyph glyph-name="g" unicode="g" horiz-adv-x="611" 
d="M587 516l-105 -490q-27 -125 -96 -172t-180 -47q-105 0 -165.5 42t-60.5 115v9h142q4 -74 94 -74q34 0 57.5 9.5t37.5 31t21 41t16 54.5l12 48q-55 -68 -149 -68q-87 0 -140 56.5t-53 148.5q0 123 70.5 216.5t189.5 93.5q116 0 158 -94l16 80h135zM404 314q0 52 -27 81
t-75 29q-68 0 -106.5 -62t-38.5 -135q0 -52 26.5 -82t73.5 -30q61 0 104 58t43 141z" />
    <glyph glyph-name="h" unicode="h" horiz-adv-x="611" 
d="M288 712l-58 -267q73 84 176 84q67 1 109.5 -36t42.5 -94q0 -39 -11 -89l-66 -310h-142l62 289q8 37 8 61q0 31 -18.5 48.5t-52.5 17.5q-113 0 -145 -150l-56 -266h-140l151 712h140z" />
    <glyph glyph-name="i" unicode="i" horiz-adv-x="259" 
d="M237 516l-109 -516h-142l109 516h142zM279 712l-25 -117h-141l24 117h142z" />
    <glyph glyph-name="j" unicode="j" horiz-adv-x="259" 
d="M237 516l-111 -524q-21 -101 -60 -140.5t-134 -39.5q-36 0 -67 5l24 112q13 -2 33 -2q30 0 41.5 13.5t19.5 50.5l112 525h142zM279 712l-25 -117h-141l24 117h142z" />
    <glyph glyph-name="k" unicode="k" 
d="M283 712l-82 -385l207 189h175l-229 -198l130 -318h-156l-83 226l-79 -66l-34 -160h-140l152 712h139z" />
    <glyph glyph-name="l" unicode="l" horiz-adv-x="259" 
d="M278 712l-150 -712h-142l151 712h141z" />
    <glyph glyph-name="m" unicode="m" horiz-adv-x="907" 
d="M234 516l-16 -73q77 87 177 87q110 0 131 -90q41 45 81.5 66.5t97.5 21.5q67 0 109 -35.5t42 -91.5q0 -36 -15 -105l-62 -296h-143l61 290q10 46 10 69q0 25 -18 40.5t-47 15.5q-31 0 -55 -13t-38.5 -36.5t-22.5 -46.5t-15 -54l-56 -265h-143l62 291q11 53 11 71
q0 25 -17 40.5t-44 15.5q-56 0 -88.5 -40.5t-45.5 -101.5l-59 -276h-142l110 516h135z" />
    <glyph glyph-name="n" unicode="n" horiz-adv-x="611" 
d="M236 516l-16 -74q75 88 180 88q68 0 111 -36t43 -92q0 -41 -11 -91l-66 -311h-144l65 304q6 25 6 49q0 30 -19 46.5t-53 16.5q-58 0 -92.5 -39.5t-47.5 -100.5l-59 -276h-141l109 516h135z" />
    <glyph glyph-name="o" unicode="o" horiz-adv-x="593" 
d="M308 531q112 0 175 -59t63 -165q0 -138 -82.5 -230.5t-219.5 -92.5q-110 0 -172.5 59t-62.5 167q0 140 84 230.5t215 90.5zM302 427q-64 0 -108.5 -64t-44.5 -156q0 -57 28 -88t78 -31t86 38.5t50 87t14 97.5q0 55 -27 85.5t-76 30.5z" />
    <glyph glyph-name="p" unicode="p" horiz-adv-x="611" 
d="M227 516l-14 -64q63 77 162 77q87 0 138.5 -58.5t51.5 -158.5q0 -61 -17 -118.5t-49.5 -104.5t-84 -75.5t-114.5 -28.5q-57 0 -99 23.5t-62 64.5l-54 -256h-141l148 699h135zM316 418q-71 0 -109 -68.5t-38 -145.5q0 -51 28.5 -81t76.5 -30q64 0 106 60t42 150
q0 55 -27.5 85t-78.5 30z" />
    <glyph glyph-name="q" unicode="q" horiz-adv-x="611" 
d="M594 516l-147 -699h-141l52 241q-63 -72 -157 -72q-89 0 -139 55t-50 154q0 84 30.5 159t95 125.5t150.5 50.5q117 0 156 -91l17 77h133zM308 418q-67 0 -110.5 -60.5t-43.5 -154.5q0 -53 25.5 -82t72.5 -29q52 0 89 36t52 84t15 98q0 48 -27 78t-73 30z" />
    <glyph glyph-name="r" unicode="r" horiz-adv-x="389" 
d="M433 525l-28 -132q-31 8 -56 8q-134 0 -170 -172l-49 -229h-141l110 516h134l-22 -95q74 109 176 109q20 0 46 -5z" />
    <glyph glyph-name="s" unicode="s" horiz-adv-x="519" 
d="M483 365h-131q0 74 -85 74q-37 0 -59.5 -15t-22.5 -40q0 -28 24 -40t115 -37q131 -36 131 -143q0 -62 -38.5 -104t-90.5 -58.5t-112 -16.5q-105 0 -164.5 44.5t-59.5 122.5v15h132v-4q0 -81 103 -81q41 0 66 17t25 45t-26.5 42.5t-103.5 37.5q-3 0 -4 0.5t-3.5 1t-4 1
t-3.5 1.5q-65 20 -95 52.5t-30 83.5q0 77 61.5 121.5t167.5 44.5q98 0 153.5 -39.5t55.5 -110.5q0 -10 -1 -15z" />
    <glyph glyph-name="t" unicode="t" horiz-adv-x="370" 
d="M376 516l-21 -97h-103l-55 -253q-4 -17 -4 -30q0 -33 48 -33q18 0 57 4l-23 -106q-39 -7 -89 -7q-142 0 -142 101q0 16 16 93l49 231h-88l22 97h87l35 155h141l-33 -155h103z" />
    <glyph glyph-name="u" unicode="u" horiz-adv-x="611" 
d="M575 516l-109 -516h-136l17 75q-63 -90 -173 -90q-72 0 -113.5 36.5t-41.5 99.5q0 28 11 83l66 312h143l-59 -279q-12 -55 -12 -75q0 -64 73 -64q56 0 88.5 41t45.5 102l59 275h141z" />
    <glyph glyph-name="v" unicode="v" horiz-adv-x="519" 
d="M28 516h146l33 -367l184 367h149l-282 -516h-162z" />
    <glyph glyph-name="w" unicode="w" horiz-adv-x="815" 
d="M30 516h145l21 -363l160 363h144l17 -360l167 360h151l-271 -516h-149l-18 363l-161 -363h-149z" />
    <glyph glyph-name="x" unicode="x" horiz-adv-x="519" 
d="M529 516l-215 -249l131 -267h-149l-74 169l-137 -169h-161l238 275l-117 241h150l61 -145l113 145h160z" />
    <glyph glyph-name="y" unicode="y" horiz-adv-x="519" 
d="M543 516l-282 -518q-51 -94 -77 -123q-57 -63 -162 -63q-44 0 -82 7l24 114q26 -6 57 -6q28 0 47 11.5t27 24t23 41.5l-94 512h145l49 -360l175 360h150z" />
    <glyph glyph-name="z" unicode="z" horiz-adv-x="500" 
d="M500 516l-22 -105l-322 -304h282l-22 -107h-468l22 105l321 304h-245l23 107h431z" />
    <glyph glyph-name="braceleft" unicode="{" horiz-adv-x="333" 
d="M416 718l-12 -64q-61 -6 -87 -36.5t-39 -101.5l-11 -57q-16 -86 -58.5 -130.5t-126.5 -55.5q120 -11 120 -122q0 -29 -13 -94.5t-13 -89.5q0 -35 17.5 -53t62.5 -22l-12 -63q-104 5 -149.5 38t-45.5 109q0 36 13.5 105t13.5 91q0 32 -18 48t-65 21l12 64q61 7 87.5 35
t38.5 91l17 91q9 49 27.5 84t41 55.5t56.5 33t65.5 17t77.5 6.5z" />
    <glyph glyph-name="bar" unicode="|" horiz-adv-x="222" 
d="M51 -214v1000h121v-1000h-121z" />
    <glyph glyph-name="braceright" unicode="}" horiz-adv-x="333" 
d="M327 306l-13 -64q-60 -7 -86 -35t-39 -91l-18 -91q-10 -49 -28.5 -84t-41 -55.5t-56 -33t-65 -17t-77.5 -6.5l12 64q61 6 87 36.5t39 101.5l11 57q16 86 58.5 130.5t126.5 55.5q-64 6 -91.5 37t-27.5 85q0 29 13 94.5t13 89.5q0 34 -18 52.5t-62 22.5l12 63
q104 -5 149 -38t45 -109q0 -36 -13.5 -105t-13.5 -91q0 -32 18.5 -48t65.5 -21z" />
    <glyph glyph-name="asciitilde" unicode="~" horiz-adv-x="600" 
d="M395 171q-21 0 -52 7t-51.5 14t-59 21t-48.5 17q-32 10 -45 10q-26 0 -41.5 -21t-19.5 -49h-78q3 34 12.5 63.5t26 56.5t45 42.5t66.5 15.5q16 0 35.5 -3.5t32 -7.5t35.5 -12t32 -11q99 -33 125 -33q48 0 60 67h78q-20 -177 -153 -177z" />
    <glyph glyph-name="sterling" unicode="&#xa3;" 
d="M382 391l-17 -82h-115q0 -7 0.5 -15.5t0.5 -13.5q0 -56 -21 -88t-74 -79q50 18 84 18q27 0 63 -9q58 -15 78 -15q36 0 91 33l5 3l40 -106q-76 -50 -151 -50q-34 0 -124 22q-63 16 -98 16q-47 0 -112 -38l-43 96q57 38 90.5 80t33.5 99q0 18 -4 47h-95l18 82h64
q-22 57 -22 106q0 97 74 160.5t186 63.5q107 0 170.5 -57.5t63.5 -154.5q0 -14 -1 -26h-137q1 9 1 20q0 46 -26.5 73t-72.5 27q-49 0 -79.5 -31.5t-30.5 -82.5q0 -47 19 -98h141z" />
    <glyph glyph-name="currency" unicode="&#xa4;" 
d="M524 173l-61 -61l-67 66q-54 -36 -117 -36q-66 0 -119 36l-67 -66l-61 61l66 66q-36 57 -36 119q0 63 36 119l-66 66l61 61l66 -66q56 36 119 36q58 0 120 -36l65 66l61 -61l-66 -66q36 -50 36 -120q0 -62 -36 -118zM382 358q0 43 -30.5 73.5t-73.5 30.5t-73.5 -30.5
t-30.5 -73.5t30.5 -73.5t73.5 -30.5t73.5 30.5t30.5 73.5z" />
    <glyph glyph-name="brokenbar" unicode="&#xa6;" horiz-adv-x="222" 
d="M58 -89v250h106v-250h-106zM58 411v250h106v-250h-106z" />
    <glyph glyph-name="section" unicode="&#xa7;" horiz-adv-x="593" 
d="M558 535h-126q1 4 1 10q0 35 -20.5 54.5t-56.5 19.5q-33 0 -54.5 -18.5t-21.5 -46.5q0 -13 7 -26.5t15 -24t24 -23.5t25 -19.5t27.5 -18.5t21.5 -14q85 -58 116.5 -98.5t31.5 -91.5q0 -60 -38.5 -104t-100.5 -55q30 -38 30 -88q0 -78 -62 -128.5t-157 -50.5t-153 49.5
t-58 130.5q0 11 1 19h127q0 -16 3 -34q13 -58 84 -58q37 0 59.5 18.5t22.5 48.5t-28.5 57.5t-106.5 84.5q-36 26 -52 39t-41.5 39t-36 52.5t-10.5 58.5q0 61 38.5 103.5t101.5 50.5q-27 38 -27 82q0 81 65 125.5t150 44.5q91 0 145.5 -44t54.5 -118q0 -16 -1 -26zM270 380
q-24 19 -46 19q-28 0 -48.5 -20t-20.5 -48q0 -34 43 -70l102 -85q35 -28 58 -28q26 0 45.5 20t19.5 48q0 37 -31 62z" />
    <glyph glyph-name="copyright" unicode="&#xa9;" horiz-adv-x="800" 
d="M393 731q155 0 265 -109.5t110 -264.5t-109.5 -264.5t-264.5 -109.5t-265 109.5t-110 264.5t109.5 264.5t264.5 109.5zM393 666q-128 0 -218.5 -90.5t-90.5 -218.5t90.5 -218.5t218.5 -90.5t219 90.5t91 218.5t-91 218.5t-219 90.5zM582 296q-8 -71 -57.5 -115
t-122.5 -44q-90 0 -149 62.5t-59 157.5q0 98 56 160.5t144 62.5q77 0 129.5 -45.5t57.5 -116.5h-92q-6 37 -29.5 58t-59.5 21q-44 0 -69 -37t-25 -101q0 -65 26.5 -102t73.5 -37q37 0 56.5 19t27.5 57h92z" />
    <glyph glyph-name="guillemotleft" unicode="&#xab;" horiz-adv-x="463" 
d="M229 452l-25 -121l-108 -70l76 -83l-22 -108l-129 139l29 129zM425 452l-25 -121l-108 -70l76 -83l-23 -108l-128 139l29 128z" />
    <glyph glyph-name="logicalnot" unicode="&#xac;" horiz-adv-x="600" 
d="M13 308v112h520v-321h-113v209h-407z" />
    <glyph glyph-name="registered" unicode="&#xae;" horiz-adv-x="400" 
d="M236 729q77 0 132 -54.5t55 -131.5t-55 -132t-132 -55t-131.5 55t-54.5 132t54.5 131.5t131.5 54.5zM236 697q-64 0 -109 -45t-45 -109t45 -109t109 -45t109 45t45 109t-45 109t-109 45zM158 647h74q92 0 92 -61q0 -36 -38 -49q20 -8 27 -21.5t8 -47.5q0 -16 5 -28h-48
q-4 8 -5 29q-1 30 -9.5 39t-36.5 9h-20v-77h-49v207zM207 555h23q45 0 45 27t-45 27h-23v-54z" />
    <glyph glyph-name="degree" unicode="&#xb0;" horiz-adv-x="400" 
d="M400 541q0 -67 -48 -115t-115 -48t-115 48t-48 115t48 115t115 48t115 -48t48 -115zM309 541q0 30 -21 51.5t-51 21.5t-51 -21.5t-21 -51.5t21 -51t51 -21t51 21t21 51z" />
    <glyph glyph-name="plusminus" unicode="&#xb1;" horiz-adv-x="600" 
d="M210 118v152h-201v111h201v155h118v-155h201v-111h-201v-152h-118zM9 -17v111h520v-111h-520z" />
    <glyph glyph-name="mu" unicode="&#xb5;" horiz-adv-x="611" 
d="M575 516l-109 -516h-133l14 69q-26 -37 -59 -58.5t-60 -21.5q-64 0 -90 36l-47 -235h-142l145 726h144l-48 -227q-22 -106 -22 -128q0 -27 17 -44.5t56 -17.5q35 0 61 16t42.5 47.5t25 58.5t16.5 67l48 228h141z" />
    <glyph glyph-name="paragraph" unicode="&#xb6;" horiz-adv-x="600" 
d="M626 631h-54l-173 -814h-98l173 814h-109l-173 -814h-99l92 430q-158 22 -158 168q0 147 96 222t245 75h275z" />
    <glyph glyph-name="periodcentered" unicode="&#xb7;" horiz-adv-x="278" 
d="M228 368l-34 -156h-162l34 156h162z" />
    <glyph glyph-name="guillemotright" unicode="&#xbb;" horiz-adv-x="463" 
d="M86 452l128 -138l-28 -129l-180 -114l25 120l108 71l-76 83zM281 453l129 -139l-29 -129l-179 -114l25 121l108 70l-76 83z" />
    <glyph glyph-name="divide" unicode="&#xf7;" horiz-adv-x="600" 
d="M12 208v125h520v-125h-520zM210 8v134h124v-134h-124zM210 399v134h124v-134h-124z" />
    <glyph glyph-name="florin" unicode="&#x192;" 
d="M469 429l-25 -93h-102l-87 -314q-28 -103 -74 -148t-151 -45q-30 0 -61 5l30 107q14 -2 30 -2q11 0 19.5 1.5t16 6l12.5 7.5t10 12t8 12t6.5 15t4.5 15t5 17t4 16l81 295h-95l26 93h94l31 111q26 92 69.5 135.5t134.5 43.5q19 0 89 -7l-28 -105q-21 4 -42 4t-35.5 -6.5
t-23.5 -21t-13.5 -27t-10.5 -35.5l-25 -92h102z" />
    <glyph glyph-name="afii10023" unicode="&#x401;" horiz-adv-x="667" 
d="M693 712l-26 -127h-387l-33 -157h359l-26 -122h-359l-38 -176h395l-28 -130h-549l151 712h541zM414 881l-25 -118h-132l25 118h132zM609 881l-24 -118h-133l26 118h131z" />
    <glyph glyph-name="afii10051" unicode="&#x402;" horiz-adv-x="778" 
d="M560 219q0 50 -25 76.5t-71 26.5q-58 0 -99.5 -42t-57.5 -117l-34 -163h-157l124 583h-184l27 129h575l-27 -129h-234l-47 -218q72 78 175 78q90 0 142.5 -58.5t52.5 -166.5q0 -89 -35 -170t-109.5 -136.5t-172.5 -55.5q-52 0 -85 12l26 122q13 -8 53 -8q56 0 95 40
t53.5 91t14.5 106z" />
    <glyph glyph-name="afii10052" unicode="&#x403;" horiz-adv-x="574" 
d="M645 712l-27 -129h-340l-124 -583h-156l151 712h496zM563 898l-163 -145h-100l102 145h161z" />
    <glyph glyph-name="afii10053" unicode="&#x404;" horiz-adv-x="741" 
d="M480 434l-26 -123h-254v-13q0 -89 41.5 -139t115.5 -50q65 0 109.5 36.5t62.5 103.5h157q-25 -124 -116.5 -195t-222.5 -71q-143 0 -223 83t-80 231q0 181 105.5 306t283.5 125q127 0 204 -66.5t79 -176.5h-153q-7 60 -40.5 88t-99.5 28q-73 0 -123.5 -46.5t-76.5 -120.5
h257z" />
    <glyph glyph-name="afii10054" unicode="&#x405;" horiz-adv-x="648" 
d="M629 500h-148q-4 60 -33 84.5t-94 24.5q-56 0 -89.5 -24t-33.5 -64q0 -10 2.5 -19t8 -16t10.5 -12.5t14.5 -11t15.5 -8.5t18.5 -7t18 -5.5t18.5 -5t16 -4.5q113 -31 154 -56q84 -51 84 -157q0 -80 -46 -134.5t-111.5 -76.5t-144.5 -22q-60 0 -109.5 12.5t-90.5 38.5
t-63.5 73t-22.5 110v17h153v-10q0 -122 148 -122q62 0 99 27t37 73q0 18 -7.5 32t-16 22.5t-26 16.5t-27.5 11t-31 9q-113 32 -153 54q-97 52 -97 156q0 99 76 159t201 60q131 0 200.5 -55.5t69.5 -158.5v-11z" />
    <glyph glyph-name="afii10055" unicode="&#x406;" horiz-adv-x="296" 
d="M303 712l-151 -712h-156l151 712h156z" />
    <glyph glyph-name="afii10056" unicode="&#x407;" horiz-adv-x="296" 
d="M303 712l-151 -712h-156l151 712h156zM230 881l-25 -118h-132l25 118h132zM426 881l-25 -118h-133l26 118h132z" />
    <glyph glyph-name="afii10057" unicode="&#x408;" 
d="M568 712l-96 -454q-12 -57 -22.5 -92.5t-31 -74t-47 -59.5t-69 -35t-99.5 -14q-101 0 -158 46.5t-57 130.5q0 37 13 106h144q-13 -67 -13 -86q0 -35 20 -54t56 -19q23 0 40 8.5t26.5 17.5t18 31.5t11 33t8.5 39.5l100 475h156z" />
    <glyph glyph-name="afii10058" unicode="&#x409;" horiz-adv-x="1054" 
d="M535 583h-171l-74 -306q-40 -163 -102.5 -227t-162.5 -64q-37 0 -82 14l25 119q27 -8 48 -8q37 0 66 34t53 134l104 433h480l-58 -270h105q76 0 121 -13q56 -16 89.5 -66t33.5 -117q0 -64 -29 -119.5t-79 -86.5q-63 -40 -199 -40h-291zM858 234q0 28 -10 46t-29.5 26
t-38.5 10.5t-48 2.5h-97l-40 -194h138q57 0 91 26.5t34 82.5z" />
    <glyph glyph-name="afii10059" unicode="&#x40a;" horiz-adv-x="1054" 
d="M479 319h-255l-67 -319h-156l151 712h156l-58 -270h255l58 270h156l-58 -270h105q76 0 121 -13q56 -16 89.5 -66t33.5 -117q0 -64 -29 -119.5t-78 -86.5q-64 -40 -200 -40h-290zM859 234q0 28 -10 46t-30 26t-39 10.5t-48 2.5h-97l-40 -194h138q57 0 91.5 26.5t34.5 82.5
z" />
    <glyph glyph-name="afii10060" unicode="&#x40b;" horiz-adv-x="778" 
d="M656 0h-156l43 201q6 27 6 47q0 38 -22 54t-70 16q-28 0 -120 -16l-65 -302h-157l124 583h-184l28 129h575l-28 -129h-234l-33 -155q103 20 148 20q100 0 149 -37.5t49 -121.5q0 -41 -10 -90z" />
    <glyph glyph-name="afii10061" unicode="&#x40c;" horiz-adv-x="722" 
d="M775 712l-342 -293l218 -419h-176l-163 320l-112 -95l-48 -225h-155l151 712h155l-61 -292l327 292h206zM623 898l-163 -145h-100l102 145h161z" />
    <glyph glyph-name="afii10062" unicode="&#x40e;" horiz-adv-x="667" 
d="M527 904h56q-20 -144 -177 -144q-69 0 -110 28t-41 87q0 9 2 29h56q2 -33 28.5 -49.5t69.5 -16.5q45 0 77 16t39 50zM31 3l28 130q30 -14 72 -14q39 0 64 23t25 61q0 14 -15 69l-130 440h168l94 -378l216 378h180l-343 -542q-66 -105 -122.5 -143.5t-143.5 -38.5
q-48 0 -93 15z" />
    <glyph glyph-name="afii10145" unicode="&#x40f;" horiz-adv-x="741" 
d="M373 0l-39 -183h-151l39 183h-226l151 712h156l-123 -582h290l123 582h156l-151 -712h-225z" />
    <glyph glyph-name="afii10017" unicode="&#x410;" horiz-adv-x="685" 
d="M506 712l119 -712h-156l-24 159h-265l-91 -159h-166l422 712h161zM241 274h191l-39 270z" />
    <glyph glyph-name="afii10018" unicode="&#x411;" horiz-adv-x="722" 
d="M248 456h161q75 0 125 -14q58 -17 92.5 -68.5t34.5 -119.5q0 -66 -30 -123.5t-81 -89.5q-65 -41 -206 -41h-345l151 712h537l-26 -127h-386zM510 242q0 30 -10.5 49t-31.5 27.5t-41 11t-51 2.5h-155l-43 -206h199q60 0 96.5 28t36.5 88z" />
    <glyph glyph-name="afii10019" unicode="&#x412;" horiz-adv-x="722" 
d="M148 712h270q44 0 72.5 -1.5t68 -10.5t63 -26t40.5 -49t17 -78q0 -65 -36 -111t-97 -58q102 -34 102 -145q0 -75 -44.5 -137.5t-116.5 -81.5q-52 -14 -160 -14h-330zM274 591l-36 -169h143q30 0 52 3.5t44.5 13t34 30.5t11.5 52q0 21 -9 35t-19 21t-31 10t-31 3.5
t-33 0.5h-126zM216 317l-42 -195h148q37 0 61 3t53 12.5t44 33.5t15 61q0 21 -5.5 37t-20 25t-23.5 14t-33 7t-31 2h-34h-132z" />
    <glyph glyph-name="afii10020" unicode="&#x413;" horiz-adv-x="574" 
d="M645 712l-27 -129h-340l-124 -583h-156l151 712h496z" />
    <glyph glyph-name="afii10021" unicode="&#x414;" horiz-adv-x="778" 
d="M660 -183h-151l39 183h-452l-39 -183h-151l66 313h57q77 79 128 188.5t75 226.5l35 167h501l-124 -582h82zM488 130l97 455h-190l-14 -65q-26 -122 -71 -223.5t-99 -166.5h277z" />
    <glyph glyph-name="afii10022" unicode="&#x415;" horiz-adv-x="667" 
d="M693 712l-26 -127h-387l-33 -157h359l-26 -122h-359l-38 -176h395l-28 -130h-549l151 712h541z" />
    <glyph glyph-name="afii10024" unicode="&#x416;" horiz-adv-x="1054" 
d="M372 309l-256 -309h-197l371 430l-191 282h182l188 -294l62 294h151l-60 -284l298 284h198l-323 -296l193 -416h-182l-130 307l-99 -91l-46 -216h-151l48 225z" />
    <glyph glyph-name="afii10025" unicode="&#x417;" horiz-adv-x="648" 
d="M617 544q0 -56 -37.5 -99.5t-91.5 -57.5q51 -8 82 -47.5t31 -96.5q0 -120 -89.5 -188.5t-225.5 -68.5q-60 0 -109.5 12.5t-90.5 38.5t-63.5 73t-22.5 110v17h153v-10q0 -122 148 -122q58 0 100 37t42 94q0 82 -121 82h-58l23 106q12 -1 38 -1q59 0 101 26.5t42 81.5
q0 36 -27.5 55.5t-78.5 19.5q-123 0 -146 -106h-148q12 81 59.5 133.5t110 73t142.5 20.5q111 0 174 -51t63 -132z" />
    <glyph glyph-name="afii10026" unicode="&#x418;" horiz-adv-x="741" 
d="M749 712l-151 -712h-156l105 494h-3l-362 -494h-186l151 712h156l-104 -493h3l362 493h185z" />
    <glyph glyph-name="afii10027" unicode="&#x419;" horiz-adv-x="741" 
d="M573 904h56q-20 -144 -177 -144q-69 0 -110 28t-41 87q0 9 2 29h56q2 -33 28.5 -49.5t69.5 -16.5q45 0 77 16t39 50zM749 712l-151 -712h-156l105 494h-3l-362 -494h-186l151 712h156l-104 -493h3l362 493h185z" />
    <glyph glyph-name="afii10028" unicode="&#x41a;" horiz-adv-x="722" 
d="M775 712l-342 -293l218 -419h-176l-163 320l-112 -95l-48 -225h-155l151 712h155l-61 -292l327 292h206z" />
    <glyph glyph-name="afii10029" unicode="&#x41b;" horiz-adv-x="722" 
d="M733 712l-152 -712h-156l124 583h-185l-74 -306q-40 -163 -102.5 -227t-162.5 -64q-15 0 -82 14l25 118q31 -7 50 -7q37 0 65 34t52 134l104 433h494z" />
    <glyph glyph-name="afii10030" unicode="&#x41c;" horiz-adv-x="907" 
d="M-5 0l155 712h217l53 -515l276 515h222l-154 -712h-147l130 567l-304 -567h-120l-70 568l-108 -568h-150z" />
    <glyph glyph-name="afii10031" unicode="&#x41d;" horiz-adv-x="741" 
d="M749 712l-151 -712h-156l65 307h-290l-65 -307h-156l151 712h156l-58 -273h290l58 273h156z" />
    <glyph glyph-name="afii10032" unicode="&#x41e;" horiz-adv-x="778" 
d="M424 727q150 0 235 -80.5t85 -223.5q0 -188 -107 -314.5t-290 -126.5q-145 0 -227 84t-82 232q0 185 110 307t276 122zM420 600q-73 0 -127 -49.5t-77 -116.5t-23 -138q0 -88 44 -138t121 -50q74 0 128 51.5t77 120.5t23 140q0 86 -43 133t-123 47z" />
    <glyph glyph-name="afii10033" unicode="&#x41f;" horiz-adv-x="741" 
d="M749 712l-151 -712h-156l124 583h-290l-124 -583h-156l151 712h602z" />
    <glyph glyph-name="afii10034" unicode="&#x420;" horiz-adv-x="667" 
d="M137 712h277q75 0 125 -14q58 -17 92.5 -68.5t34.5 -119.5q0 -66 -30 -123.5t-81 -89.5q-65 -41 -206 -41h-153l-55 -256h-155zM265 585l-43 -206h159q60 0 96.5 28t36.5 88q0 30 -10.5 49t-31.5 27.5t-41 11t-51 2.5h-115z" />
    <glyph glyph-name="afii10035" unicode="&#x421;" horiz-adv-x="741" 
d="M687 255q-23 -127 -115 -199.5t-225 -72.5q-143 0 -223 83t-80 231q0 181 105.5 306t283.5 125q128 0 205.5 -68t77.5 -180v-15h-151q-3 70 -37 103t-105 33q-55 0 -99.5 -28.5t-70.5 -74t-39.5 -97t-13.5 -103.5q0 -89 41.5 -139t115.5 -50q66 0 111.5 38t62.5 108h156z
" />
    <glyph glyph-name="afii10036" unicode="&#x422;" horiz-adv-x="611" 
d="M678 712l-27 -129h-217l-124 -583h-156l124 583h-223l27 129h596z" />
    <glyph glyph-name="afii10037" unicode="&#x423;" horiz-adv-x="667" 
d="M31 3l28 130q30 -14 72 -14q39 0 64 23t25 61q0 14 -15 69l-130 440h168l94 -378l216 378h180l-343 -542q-66 -105 -122.5 -143.5t-143.5 -38.5q-48 0 -93 15z" />
    <glyph glyph-name="afii10038" unicode="&#x424;" horiz-adv-x="848" 
d="M819 410q0 -105 -52.5 -182t-136.5 -113.5t-187 -36.5l-17 -78h-154l17 78q-120 8 -188.5 69t-68.5 163q0 105 52.5 182t137 113.5t187.5 36.5l14 70h154l-14 -70q119 -8 187.5 -69t68.5 -163zM668 397q0 58 -33.5 92.5t-95.5 39.5l-71 -334q89 0 144.5 54t55.5 148z
M384 525q-89 0 -145 -54t-56 -148q0 -59 33.5 -93t96.5 -39z" />
    <glyph glyph-name="afii10039" unicode="&#x425;" horiz-adv-x="667" 
d="M727 712l-295 -344l177 -368h-173l-112 252l-204 -252h-190l325 375l-168 337h170l103 -231l182 231h185z" />
    <glyph glyph-name="afii10040" unicode="&#x426;" horiz-adv-x="757" 
d="M639 -183h-151l39 183h-531l151 712h156l-124 -582h291l124 582h156l-124 -582h79z" />
    <glyph glyph-name="afii10041" unicode="&#x427;" horiz-adv-x="667" 
d="M274 274q-125 0 -177.5 58.5t-24.5 190.5l40 189h156l-41 -191q-14 -64 6 -90.5t80 -26.5q49 0 145 16l62 292h156l-152 -712h-156l63 294q-103 -20 -157 -20z" />
    <glyph glyph-name="afii10042" unicode="&#x428;" horiz-adv-x="1075" 
d="M-4 0l151 712h151l-123 -582h242l123 582h151l-123 -582h242l123 582h151l-151 -712h-937z" />
    <glyph glyph-name="afii10043" unicode="&#x429;" horiz-adv-x="1092" 
d="M973 -183h-151l39 183h-865l151 712h151l-123 -582h242l123 582h151l-123 -582h242l123 582h151l-123 -582h79z" />
    <glyph glyph-name="afii10044" unicode="&#x42a;" horiz-adv-x="806" 
d="M610 242q0 30 -10.5 49t-31.5 27.5t-41 11t-51 2.5h-115l-43 -206h159q60 0 96.5 28t36.5 88zM260 583h-205l27 129h360l-54 -256h121q75 0 125 -14q58 -17 92.5 -68.5t34.5 -119.5q0 -66 -30 -123.5t-81 -89.5q-65 -41 -206 -41h-308z" />
    <glyph glyph-name="afii10045" unicode="&#x42b;" horiz-adv-x="907" 
d="M587 254q0 -66 -30 -123.5t-81 -89.5q-65 -41 -206 -41h-273l151 712h155l-54 -256h86q75 0 125 -14q58 -17 92.5 -68.5t34.5 -119.5zM436 242q0 30 -10.5 49t-31.5 27.5t-41 11t-51 2.5h-80l-43 -206h124q60 0 96.5 28t36.5 88zM760 712h156l-151 -712h-156z" />
    <glyph glyph-name="afii10046" unicode="&#x42c;" horiz-adv-x="667" 
d="M622 254q0 -66 -30 -123.5t-81 -89.5q-65 -41 -206 -41h-308l151 712h155l-54 -256h121q75 0 125 -14q58 -17 92.5 -68.5t34.5 -119.5zM471 242q0 30 -10.5 49t-31.5 27.5t-41 11t-51 2.5h-115l-43 -206h159q60 0 96.5 28t36.5 88z" />
    <glyph glyph-name="afii10047" unicode="&#x42d;" horiz-adv-x="741" 
d="M704 414q0 -181 -105.5 -306t-283.5 -125q-128 0 -205.5 68t-77.5 180v15h151q3 -70 37 -103t105 -33q80 0 133 55.5t76 140.5h-262l26 122h250q-4 83 -45 128.5t-112 45.5q-117 0 -162 -109h-159q31 110 119.5 172.5t211.5 62.5q143 0 223 -83t80 -231z" />
    <glyph glyph-name="afii10048" unicode="&#x42e;" horiz-adv-x="1018" 
d="M693 600q-70 0 -120.5 -55t-71.5 -126t-21 -142q0 -80 34.5 -124.5t98.5 -44.5q55 0 98 33.5t67 85.5t36.5 106.5t12.5 105.5q0 78 -34 119.5t-100 41.5zM705 727q134 0 206 -76.5t72 -207.5q0 -73 -15 -140t-46.5 -125.5t-76.5 -102t-109 -68.5t-141 -25
q-126 0 -197.5 79t-71.5 215v31h-109l-65 -307h-156l151 712h156l-58 -273h104q39 128 131.5 208t224.5 80z" />
    <glyph glyph-name="afii10049" unicode="&#x42f;" horiz-adv-x="722" 
d="M382 274l-259 -274h-200l290 293q-122 43 -122 175q0 64 28.5 119t77.5 86q62 39 198 39h336l-152 -712h-155l59 274h-101zM549 589h-175q-58 0 -92.5 -27t-34.5 -84q0 -38 20 -58t44 -24t64 -4h133z" />
    <glyph glyph-name="afii10065" unicode="&#x430;" horiz-adv-x="574" 
d="M58 360q32 170 249 170q100 0 156.5 -34t56.5 -94q0 -35 -13 -94l-41 -186q-12 -53 -12 -85q0 -22 4 -37h-140q-1 9 -1 19q0 18 2 32q-61 -67 -163 -67q-76 0 -121 38.5t-45 103.5q0 47 20 81t56.5 53.5t77.5 29.5t94 14q88 7 108 14q38 15 38 61q0 56 -88 56
q-44 0 -68.5 -17.5t-36.5 -57.5h-133zM358 248q-6 -5 -14.5 -8.5t-14 -5.5t-17.5 -4l-15 -2.5t-18 -1.5l-15 -2q-32 -3 -49 -6.5t-39.5 -12t-32.5 -24.5t-10 -40q0 -31 21 -48.5t58 -17.5q105 0 134 121z" />
    <glyph glyph-name="afii10066" unicode="&#x431;" horiz-adv-x="593" 
d="M598 734q-8 -37 -27.5 -65t-42.5 -44.5t-58 -27.5t-65 -16t-72 -9q-47 -4 -82 -20t-57.5 -43t-36 -57t-23.5 -71h3q69 135 202 135q96 0 153 -57t57 -159q0 -136 -80.5 -226t-214.5 -90q-106 0 -167 61.5t-61 167.5q0 76 14 148.5t44.5 142t87 120.5t132.5 70
q22 6 61 10.5t62.5 10.5t31.5 19h139zM408 304q0 52 -25.5 80.5t-70.5 28.5q-60 0 -103 -61.5t-43 -151.5q0 -54 26 -83t73 -29t81 36.5t48 83.5t14 96z" />
    <glyph glyph-name="afii10067" unicode="&#x432;" horiz-adv-x="574" 
d="M104 516h243q32 0 52.5 -1t49.5 -7.5t45.5 -19t29 -36t12.5 -56.5q0 -47 -26 -80t-70 -42q74 -25 74 -105q0 -55 -32.5 -100t-84.5 -59q-37 -10 -116 -10h-286zM221 422l-23 -108h108q42 0 66.5 12.5t24.5 50.5q0 16 -6.5 26t-21.5 14t-24 4.5t-27 0.5h-97zM179 224
l-27 -128h106q33 0 53.5 3t40 20t19.5 49q0 17 -7 28t-14.5 16.5t-24 8.5t-24 3h-26.5h-96z" />
    <glyph glyph-name="afii10068" unicode="&#x433;" horiz-adv-x="453" 
d="M467 409h-244l-87 -409h-141l110 516h384z" />
    <glyph glyph-name="afii10069" unicode="&#x434;" horiz-adv-x="628" 
d="M510 -152h-133l32 152h-337l-32 -152h-133l55 259h62q34 42 75 140t58 179l19 90h409l-87 -409h67zM359 107l65 304h-136l-3 -13q-19 -81 -53.5 -166t-64.5 -125h192z" />
    <glyph glyph-name="afii10070" unicode="&#x435;" horiz-adv-x="574" 
d="M504 157q-25 -88 -93.5 -131t-164.5 -43q-113 0 -174.5 59.5t-61.5 171.5q0 138 82.5 227t210.5 89q107 0 169 -60.5t62 -164.5q0 -31 -8 -82h-380q-1 -11 -1 -24q0 -55 29 -85.5t81 -30.5q79 0 110 74h139zM160 309h240v15q0 50 -27 78t-74 28q-50 0 -87 -32t-52 -89z
" />
    <glyph glyph-name="afii10072" unicode="&#x436;" horiz-adv-x="797" 
d="M834 516l-226 -204l126 -312h-153l-76 219l-77 -70l-32 -149h-134l33 155l-41 62l-164 -217h-175l269 324l-126 192h152l118 -205l44 205h134l-41 -190l193 190h176z" />
    <glyph glyph-name="afii10073" unicode="&#x437;" horiz-adv-x="519" 
d="M321 169q0 55 -90 55h-45l20 88q8 -1 27 -1q45 0 75.5 17t30.5 57q0 50 -73 50q-89 0 -105 -72h-132q27 167 260 167q96 0 142 -36.5t46 -95.5q0 -41 -28 -74.5t-68 -44.5q37 -5 60.5 -34t23.5 -71q0 -90 -66.5 -139.5t-178.5 -49.5q-108 0 -171 44.5t-63 122.5v17h132
v-6q0 -81 103 -81q43 0 71.5 22.5t28.5 64.5z" />
    <glyph glyph-name="afii10074" unicode="&#x438;" horiz-adv-x="611" 
d="M475 0h-136l74 349l-248 -349h-171l110 516h136l-74 -349l248 349h171z" />
    <glyph glyph-name="afii10075" unicode="&#x439;" horiz-adv-x="611" 
d="M475 0h-136l74 349l-248 -349h-171l110 516h136l-74 -349l248 349h171zM475 712h56q-20 -144 -177 -144q-69 0 -110 28t-41 87q0 9 2 29h56q2 -33 28.5 -49.5t69.5 -16.5q45 0 77 16t39 50z" />
    <glyph glyph-name="afii10076" unicode="&#x43a;" 
d="M204 325l207 191h180l-237 -203l137 -313h-157l-88 221l-78 -67l-33 -154h-139l110 516h139z" />
    <glyph glyph-name="afii10077" unicode="&#x43b;" horiz-adv-x="611" 
d="M475 0h-141l88 409h-134l-46 -184q-14 -55 -27.5 -90.5t-37.5 -73.5t-62 -56.5t-91 -18.5q-42 0 -72 10l24 111q15 -5 40 -5q32 0 51.5 27t37.5 103l68 284h412z" />
    <glyph glyph-name="afii10078" unicode="&#x43c;" horiz-adv-x="741" 
d="M603 0h-134l83 392h-3l-184 -392h-134l-18 392h-3l-83 -392h-134l110 516h203l17 -375h4l177 375h209z" />
    <glyph glyph-name="afii10079" unicode="&#x43d;" horiz-adv-x="611" 
d="M475 0h-141l46 217h-199l-46 -217h-141l110 516h141l-40 -187h199l40 187h141z" />
    <glyph glyph-name="afii10080" unicode="&#x43e;" horiz-adv-x="593" 
d="M308 531q112 0 175 -59t63 -165q0 -138 -82.5 -230.5t-219.5 -92.5q-110 0 -172.5 59t-62.5 167q0 140 84 230.5t215 90.5zM302 427q-64 0 -108.5 -64t-44.5 -156q0 -57 28 -88t78 -31t86 38.5t50 87t14 97.5q0 55 -27 85.5t-76 30.5z" />
    <glyph glyph-name="afii10081" unicode="&#x43f;" horiz-adv-x="611" 
d="M475 0h-141l88 409h-199l-88 -409h-141l110 516h481z" />
    <glyph glyph-name="afii10082" unicode="&#x440;" horiz-adv-x="611" 
d="M227 516l-14 -64q63 77 162 77q87 0 138.5 -58.5t51.5 -158.5q0 -61 -17 -118.5t-49.5 -104.5t-84 -75.5t-114.5 -28.5q-57 0 -99 23.5t-62 64.5l-54 -256h-141l148 699h135zM316 418q-71 0 -109 -68.5t-38 -145.5q0 -51 28.5 -81t76.5 -30q64 0 106 60t42 150
q0 55 -27.5 85t-78.5 30z" />
    <glyph glyph-name="afii10083" unicode="&#x441;" 
d="M508 188q-53 -204 -256 -204q-239 0 -239 225q0 137 80 228.5t216 91.5q98 0 160.5 -48.5t62.5 -143.5h-137q0 89 -91 89q-52 0 -88 -37.5t-49.5 -85t-13.5 -98.5q0 -118 103 -118q82 0 112 101h140z" />
    <glyph glyph-name="afii10084" unicode="&#x442;" horiz-adv-x="500" 
d="M500 409h-170l-87 -409h-141l87 409h-170l23 107h481z" />
    <glyph glyph-name="afii10085" unicode="&#x443;" horiz-adv-x="519" 
d="M543 516l-282 -518q-51 -94 -77 -123q-57 -63 -162 -63q-44 0 -82 7l24 114q26 -6 57 -6q28 0 47 11.5t27 24t23 41.5l-94 512h145l49 -360l175 360h150z" />
    <glyph glyph-name="afii10086" unicode="&#x444;" horiz-adv-x="846" 
d="M309 145l48 226q-3 28 -23 41.5t-46 13.5q-36 0 -64.5 -25t-44 -63t-23.5 -77t-8 -73q0 -93 73 -93q30 0 54.5 15t33.5 35zM659 339q0 87 -71 87q-63 0 -93 -55l-46 -226v-1q0 -20 18 -34.5t48 -14.5q48 0 82.5 44.5t48 97.5t13.5 102zM525 -14q-31 0 -58 14t-39 34h-3
l-46 -217h-140l46 217h-3q-20 -20 -53 -34t-64 -14q-82 0 -120.5 56t-38.5 143q0 82 28 159t91 132t149 55q43 0 69.5 -15t33.5 -38h3l49 234h140l-49 -234h3q40 53 125 53q73 0 113.5 -53.5t40.5 -142.5q0 -61 -18 -121.5t-51 -112t-87.5 -83.5t-120.5 -32z" />
    <glyph glyph-name="afii10087" unicode="&#x445;" horiz-adv-x="519" 
d="M529 516l-215 -249l131 -267h-149l-74 169l-137 -169h-161l238 275l-117 241h150l61 -145l113 145h160z" />
    <glyph glyph-name="afii10088" unicode="&#x446;" horiz-adv-x="611" 
d="M496 -152h-133l32 152h-405l110 516h141l-87 -407h191l87 407h141l-87 -407h65z" />
    <glyph glyph-name="afii10089" unicode="&#x447;" horiz-adv-x="574" 
d="M364 302l45 214h141l-109 -516h-141l43 203q-99 -23 -170 -23q-68 0 -102.5 37.5t-34.5 100.5q0 27 6 57l29 141h141l-27 -128q-6 -30 -6 -50q0 -28 14.5 -39.5t49.5 -11.5q63 0 121 15z" />
    <glyph glyph-name="afii10090" unicode="&#x448;" horiz-adv-x="861" 
d="M725 0h-731l110 516h141l-87 -407h154l87 407h141l-87 -407h154l87 407h141z" />
    <glyph glyph-name="afii10091" unicode="&#x449;" horiz-adv-x="870" 
d="M-8 0l110 516h141l-87 -407h151l87 407h141l-87 -407h151l87 407h141l-87 -407h65l-55 -261h-133l32 152h-657z" />
    <glyph glyph-name="afii10092" unicode="&#x44a;" horiz-adv-x="648" 
d="M373 236h-83l-28 -135h112q91 0 91 77q0 36 -23 47t-69 11zM33 407l24 109h294l-39 -180h106q59 0 93 -10q45 -13 71.5 -51t26.5 -89q0 -48 -22.5 -90t-61.5 -66q-50 -30 -154 -30h-271l87 407h-154z" />
    <glyph glyph-name="afii10093" unicode="&#x44b;" horiz-adv-x="778" 
d="M392 30q-50 -30 -154 -30h-243l110 516h141l-39 -180h78q59 0 93 -10q45 -13 71.5 -51t26.5 -89q0 -48 -22.5 -90t-61.5 -66zM240 236h-55l-28 -135h84q91 0 91 77q0 36 -23 47t-69 11zM751 516l-110 -516h-141l110 516h141z" />
    <glyph glyph-name="afii10094" unicode="&#x44c;" horiz-adv-x="537" 
d="M414 30q-50 -30 -154 -30h-271l110 516h141l-39 -180h106q59 0 93 -10q45 -13 71.5 -51t26.5 -89q0 -48 -22.5 -90t-61.5 -66zM262 236h-83l-28 -135h112q91 0 91 77q0 36 -23 47t-69 11z" />
    <glyph glyph-name="afii10095" unicode="&#x44d;" 
d="M515 304q0 -137 -80 -228.5t-216 -91.5q-98 0 -160.5 48.5t-62.5 143.5h137q0 -89 91 -89q54 0 89 37.5t50 95.5h-165l19 90h158q-1 116 -103 116q-71 0 -104 -77h-141q59 180 249 180q239 0 239 -225z" />
    <glyph glyph-name="afii10096" unicode="&#x44e;" horiz-adv-x="836" 
d="M564 427q-36 0 -65 -24.5t-45.5 -61t-25 -73.5t-8.5 -69q0 -53 23.5 -82t66.5 -29q48 0 82 42.5t47 93t13 95.5q0 51 -23 79.5t-65 28.5zM181 219l-46 -219h-141l110 516h141l-41 -193h98q29 92 99 150t169 58q104 0 162 -56t58 -159q0 -88 -32.5 -162.5t-100 -122
t-157.5 -47.5q-102 0 -159.5 56t-57.5 161q0 12 1 18h-103z" />
    <glyph glyph-name="afii10097" unicode="&#x44f;" horiz-adv-x="574" 
d="M265 191l-174 -191h-168l210 212q-89 33 -89 127q0 46 21 86t57 62q46 29 143 29h281l-110 -516h-139l40 191h-72zM385 415h-118q-80 0 -80 -70q0 -34 20.5 -43.5t60.5 -9.5h91z" />
    <glyph glyph-name="afii10071" unicode="&#x451;" horiz-adv-x="574" 
d="M327 706l-25 -118h-132l25 118h132zM522 706l-24 -118h-133l25 118h132zM504 157q-25 -88 -93.5 -131t-164.5 -43q-113 0 -174.5 59.5t-61.5 171.5q0 138 82.5 227t210.5 89q107 0 169 -60.5t62 -164.5q0 -31 -8 -82h-380q-1 -11 -1 -24q0 -55 29 -85.5t81 -30.5
q79 0 110 74h139zM160 309h240v15q0 50 -27 78t-74 28q-50 0 -87 -32t-52 -89z" />
    <glyph glyph-name="afii10099" unicode="&#x452;" horiz-adv-x="574" 
d="M527 259q0 -30 -11 -89l-17 -84q-53 -267 -351 -274l26 122q80 7 123.5 40t61.5 121l11 54q8 37 8 61q0 31 -18.5 48.5t-52.5 17.5q-113 0 -145 -150l-27 -126h-140l92 435h-59l21 96h59l38 181h140l-38 -181h243l-21 -96h-243l-28 -130q73 84 176 84q67 1 109.5 -36
t42.5 -94z" />
    <glyph glyph-name="afii10100" unicode="&#x453;" horiz-adv-x="453" 
d="M472 409h-249l-87 -409h-141l110 516h390zM468 727l-163 -144h-100l102 144h161z" />
    <glyph glyph-name="afii10101" unicode="&#x454;" 
d="M337 312l-19 -90h-165v-17q0 -118 103 -118q77 0 108 89h141q-56 -192 -253 -192q-239 0 -239 225q0 137 80 228.5t216 91.5q94 0 156.5 -45.5t66.5 -134.5h-137q-8 77 -91 77q-94 0 -134 -114h167z" />
    <glyph glyph-name="afii10102" unicode="&#x455;" horiz-adv-x="519" 
d="M483 365h-131q0 74 -85 74q-37 0 -59.5 -15t-22.5 -40q0 -28 24 -40t115 -37q131 -36 131 -143q0 -62 -38.5 -104t-90.5 -58.5t-112 -16.5q-105 0 -164.5 44.5t-59.5 122.5v15h132v-4q0 -81 103 -81q41 0 66 17t25 45t-26.5 42.5t-103.5 37.5q-3 0 -4 0.5t-3.5 1t-4 1
t-3.5 1.5q-65 20 -95 52.5t-30 83.5q0 77 61.5 121.5t167.5 44.5q98 0 153.5 -39.5t55.5 -110.5q0 -10 -1 -15z" />
    <glyph glyph-name="afii10103" unicode="&#x456;" horiz-adv-x="259" 
d="M237 516l-109 -516h-142l109 516h142zM279 712l-25 -117h-141l24 117h142z" />
    <glyph glyph-name="afii10104" unicode="&#x457;" horiz-adv-x="259" 
d="M237 516l-109 -516h-142l109 516h142zM175 707l-25 -118h-132l25 118h132zM370 707l-24 -118h-133l25 118h132z" />
    <glyph glyph-name="afii10105" unicode="&#x458;" horiz-adv-x="259" 
d="M237 516l-111 -524q-21 -101 -60 -140.5t-134 -39.5q-36 0 -67 5l24 112q13 -2 33 -2q30 0 41.5 13.5t19.5 50.5l112 525h142zM279 712l-25 -117h-141l24 117h142z" />
    <glyph glyph-name="afii10106" unicode="&#x459;" horiz-adv-x="822" 
d="M783 181q0 -47 -21.5 -88t-59.5 -64q-47 -29 -149 -29h-244l87 409h-108l-46 -184q-14 -55 -27.5 -90.5t-37.5 -73.5t-62 -56.5t-91 -18.5q-42 0 -72 10l24 111q15 -5 40 -5q32 0 51.5 27t37.5 103l68 284h387l-41 -190h80q56 0 90 -10q43 -12 68.5 -49t25.5 -86z
M639 172q0 33 -21 43t-64 10h-56l-27 -123h84q84 0 84 70z" />
    <glyph glyph-name="afii10107" unicode="&#x45a;" horiz-adv-x="822" 
d="M783 181q0 -47 -21.5 -88t-59.5 -64q-47 -29 -149 -29h-249l48 225h-169l-48 -225h-141l110 516h141l-40 -187h169l40 187h141l-41 -190h85q56 0 90 -10q43 -12 68.5 -49t25.5 -86zM639 172q0 33 -21 43t-64 10h-61l-27 -123h89q84 0 84 70z" />
    <glyph glyph-name="afii10108" unicode="&#x45b;" horiz-adv-x="574" 
d="M527 259q0 -39 -11 -89l-37 -170h-142l33 149q8 37 8 61q0 31 -18.5 48.5t-52.5 17.5q-113 0 -145 -150l-27 -126h-140l92 435h-59l21 96h59l38 181h140l-38 -181h243l-21 -96h-243l-28 -130q73 84 176 84q67 1 109.5 -36t42.5 -94z" />
    <glyph glyph-name="afii10109" unicode="&#x45c;" 
d="M488 727l-163 -144h-100l102 144h161zM204 325l207 191h180l-237 -203l137 -313h-157l-88 221l-78 -67l-33 -154h-139l110 516h139z" />
    <glyph glyph-name="afii10110" unicode="&#x45e;" horiz-adv-x="519" 
d="M543 516l-282 -518q-51 -94 -77 -123q-57 -63 -162 -63q-44 0 -82 7l24 114q26 -6 57 -6q28 0 47 11.5t27 24t23 41.5l-94 512h145l49 -360l175 360h150zM415 712h56q-20 -144 -177 -144q-69 0 -110 28t-41 87q0 9 2 29h56q2 -33 28.5 -49.5t69.5 -16.5q45 0 77 16t39 50
z" />
    <glyph glyph-name="afii10193" unicode="&#x45f;" horiz-adv-x="611" 
d="M475 0h-173l-32 -152h-134l32 152h-174l110 516h141l-87 -407h199l87 407h141z" />
    <glyph glyph-name="afii10050" unicode="&#x490;" horiz-adv-x="574" 
d="M678 871l-62 -292h-341l-123 -579h-156l151 712h346l34 159h151z" />
    <glyph glyph-name="afii10098" unicode="&#x491;" horiz-adv-x="453" 
d="M525 658l-53 -251h-249l-87 -407h-141l110 516h256l30 142h134z" />
    <glyph glyph-name="endash" unicode="&#x2013;" horiz-adv-x="500" 
d="M498 332l-26 -120h-498l25 120h499z" />
    <glyph glyph-name="emdash" unicode="&#x2014;" horiz-adv-x="1000" 
d="M998 332l-26 -120h-997l25 120h998z" />
    <glyph glyph-name="quoteleft" unicode="&#x2018;" horiz-adv-x="278" 
d="M305 722l-15 -70q-46 -6 -63.5 -26t-28.5 -70h71l-32 -152h-158l27 126q20 95 62.5 143.5t131.5 48.5h5z" />
    <glyph glyph-name="quoteright" unicode="&#x2019;" horiz-adv-x="278" 
d="M294 712l-27 -132q-19 -90 -64.5 -138.5t-131.5 -48.5h-3l16 72q44 2 62 24t29 70h-71l32 153h158z" />
    <glyph glyph-name="quotesinglbase" unicode="&#x201a;" horiz-adv-x="278" 
d="M166 150l-28 -134q-18 -86 -59 -131t-123 -50l15 69q41 6 58.5 28t28.5 68h-68l33 150h143z" />
    <glyph glyph-name="quotedblleft" unicode="&#x201c;" horiz-adv-x="481" 
d="M291 720l-15 -66q-43 -8 -60.5 -29.5t-25.5 -67.5h66l-32 -150h-144l33 144q19 81 60 124t118 45zM504 720l-15 -66q-43 -8 -60.5 -29.5t-25.5 -67.5h66l-32 -150h-144l33 144q19 81 60 124t118 45z" />
    <glyph glyph-name="quotedblright" unicode="&#x201d;" horiz-adv-x="481" 
d="M291 712l-30 -138q-20 -89 -62.5 -131t-118.5 -46l15 68q43 9 60.5 30.5t26.5 65.5h-67l32 151h144zM502 712l-29 -136q-18 -85 -59 -129.5t-122 -49.5l15 67q44 10 60.5 30.5t26.5 66.5h-66l31 151h143z" />
    <glyph glyph-name="quotedblbase" unicode="&#x201e;" horiz-adv-x="481" 
d="M153 150l-29 -134q-19 -86 -59.5 -131t-121.5 -50l14 69q42 6 60 28t27 68h-67l32 150h144zM365 150l-29 -134q-19 -86 -59.5 -131t-121.5 -50l14 69q42 6 60 28t27 68h-67l32 150h144z" />
    <glyph glyph-name="dagger" unicode="&#x2020;" horiz-adv-x="593" 
d="M442 712l-42 -198h187l-25 -118h-187l-118 -561h-136l118 561h-185l25 118h185l42 198h136z" />
    <glyph glyph-name="daggerdbl" unicode="&#x2021;" horiz-adv-x="593" 
d="M442 712l-41 -193h188l-24 -115h-188l-55 -261h187l-24 -115h-188l-41 -192h-135l41 192h-185l24 115h185l55 261h-184l24 115h184l42 193h135z" />
    <glyph glyph-name="bullet" unicode="&#x2022;" horiz-adv-x="500" 
d="M250 534q74 0 126 -52t52 -126t-52 -126t-126 -52t-126 52t-52 126t52 126t126 52z" />
    <glyph glyph-name="ellipsis" unicode="&#x2026;" horiz-adv-x="1000" 
d="M363 0l28 134h123l-28 -134h-123zM696 0l28 134h123l-28 -134h-123zM30 0l28 134h123l-28 -134h-123z" />
    <glyph glyph-name="perthousand" unicode="&#x2030;" horiz-adv-x="1130" 
d="M699 719l-538 -746h-93l538 746h93zM240 705q131 0 131 -131q0 -93 -48.5 -153t-123.5 -60q-61 0 -95 35t-34 97q0 85 44 148.5t126 63.5zM570 332q64 0 99 -33t35 -94q0 -90 -44.5 -153t-130.5 -63q-59 0 -92.5 35t-33.5 95q0 83 44 148t123 65zM923 333h2q61 0 96 -34
t35 -93q0 -88 -45 -152.5t-130 -64.5q-59 0 -93 35t-34 96q0 84 44 148.5t125 64.5zM282 590q0 23 -12 36.5t-32 13.5q-14 0 -27 -8q-21 -13 -37.5 -58.5t-16.5 -91.5q0 -55 45 -55q28 0 45 24q35 52 35 139zM569 267q-26 0 -44 -27q-14 -20 -24.5 -59.5t-10.5 -70.5
q0 -56 47 -56q25 0 43 24q15 20 25 58t10 73q0 58 -46 58zM967 212q0 55 -45 55q-21 0 -35 -13q-19 -17 -32.5 -60.5t-13.5 -86.5q0 -25 12.5 -39t33.5 -14t36 15q19 20 31.5 60t12.5 83z" />
    <glyph glyph-name="guilsinglleft" unicode="&#x2039;" horiz-adv-x="259" 
d="M224 452l-24 -122l-110 -68l77 -84l-23 -107l-127 138l28 129z" />
    <glyph glyph-name="guilsinglright" unicode="&#x203a;" horiz-adv-x="259" 
d="M75 453l128 -140l-29 -127l-179 -115l24 122l110 69l-77 83z" />
    <glyph glyph-name="afii61352" unicode="&#x2116;" horiz-adv-x="1046" 
d="M-5 0l148 694h159l149 -439l94 439h150l-148 -694h-156l-151 440l-94 -440h-151zM946 98l-21 -98h-301l21 98h301zM849 452q66 0 104 -37t38 -99q0 -81 -52.5 -134t-135.5 -53q-66 0 -104.5 37.5t-38.5 98.5q0 82 53 134.5t136 52.5zM758 263q0 -60 52 -60q41 0 62 35.5
t21 78.5q0 61 -53 61q-40 0 -61 -36t-21 -79z" />
    <glyph glyph-name="trademark" unicode="&#x2122;" horiz-adv-x="990" 
d="M245 356v288h-109v68h300v-68h-107v-288h-84zM483 356v356h120l87 -245l87 245h118v-356h-77v290l-101 -290h-56l-101 290v-290h-77z" />
    <glyph glyph-name="Delta" unicode="&#x2206;" horiz-adv-x="683" 
d="M472 695l133 -695h-665l422 695h110zM112 97h373l-87 491z" />
    <glyph glyph-name="radical" unicode="&#x221a;" horiz-adv-x="600" 
d="M583 786l-212 -1000h-131l-154 319l-49 -23l-40 85l158 65l132 -281l171 835h125z" />
    <glyph glyph-name="infinity" unicode="&#x221e;" horiz-adv-x="806" 
d="M742 262q0 -79 -45.5 -128.5t-119.5 -49.5q-30 0 -57 8.5t-52.5 27t-41.5 33.5t-42 42l-34.5 -34.5t-31 -27.5t-39 -27t-38.5 -13.5t-49 -7.5q-74 0 -120.5 48.5t-46.5 126.5t45.5 127t118.5 49q58 0 102.5 -31t92.5 -87q34 38 55.5 59t59.5 40.5t78 19.5q73 0 119 -49
t46 -126zM648 259q0 35 -20 56.5t-52 21.5q-48 0 -126 -80q24 -23 39.5 -36t40.5 -25.5t48 -12.5q32 0 51 21t19 55zM318 258q-80 78 -129 78q-30 0 -50 -21.5t-20 -55.5t20 -54.5t53 -20.5q31 0 65 21.5t61 52.5z" />
    <glyph glyph-name="approxequal" unicode="&#x2248;" horiz-adv-x="600" 
d="M400 70q-21 0 -52 7t-51.5 14t-59 21t-48.5 17q-30 10 -45 10q-48 0 -62 -70h-75q6 73 41.5 124.5t106.5 51.5q16 0 35.5 -4t31.5 -7.5t35.5 -11.5t31.5 -11q99 -33 126 -33q49 0 61 67h75q-18 -175 -151 -175zM402 273q-21 0 -52 7t-51.5 14t-59 21t-48.5 17
q-30 10 -45 10q-48 0 -62 -70h-75q6 73 41.5 124.5t106.5 51.5q16 0 35.5 -4t31.5 -7.5t35.5 -11.5t31.5 -11q99 -33 126 -33q49 0 61 67h75q-18 -175 -151 -175z" />
    <glyph glyph-name="notequal" unicode="&#x2260;" horiz-adv-x="600" 
d="M486 530l-56 -110h114v-112h-171l-50 -97h221v-112h-278l-82 -163l-104 52l57 111h-113v112h170l49 97h-219v112h276l82 162z" />
    <glyph glyph-name="lessequal" unicode="&#x2264;" horiz-adv-x="600" 
d="M21 273v102l519 179v-117l-361 -113l361 -107v-117zM21 76h519v-111h-519v111z" />
    <glyph glyph-name="greaterequal" unicode="&#x2265;" horiz-adv-x="600" 
d="M559 273l-519 -173v117l360 107l-360 113v117l519 -179v-102zM559 76v-111h-519v111h519z" />
    <glyph glyph-name="hyphenminus" unicode="&#xe000;" horiz-adv-x="407" 
d="M352 334l-27 -123h-301l27 123h301z" />
    <glyph glyph-name="nbspace" unicode="&#xe001;" horiz-adv-x="278" 
 />
    </font>
</defs>
</svg>
