<?xml version="1.0" standalone="no"?>
<!DOCTYPE svg PUBLIC "-//W3C//DTD SVG 1.1//EN" "http://www.w3.org/Graphics/SVG/1.1/DTD/svg11.dtd" >
<svg xmlns="http://www.w3.org/2000/svg" xmlns:xlink="http://www.w3.org/1999/xlink" version="1.1">
<metadata>
Created by FontForge 20170731 at Tue Aug 29 14:39:48 2006
 By Aleksey,,,
Copyrighted (c) 1981, 1997 by and the property of Linotype-Hell AG and/or its subsidiaries. All Rights Reserved. All Cyrillic characters designed by DoubleAlex. Helvetica is a registered Trademark of Linotype-Hell AG and/or its subsidiaries.
</metadata>
<defs>
<font id="HelveticaNeueCyr-Heavy" horiz-adv-x="630" >
  <font-face 
    font-family="HelveticaNeueCyr"
    font-weight="900"
    font-stretch="normal"
    units-per-em="1000"
    panose-1="2 0 9 3 4 0 0 2 0 4"
    ascent="800"
    descent="-200"
    x-height="516"
    cap-height="712"
    bbox="-51 -214 1109 903"
    underline-thickness="50"
    underline-position="-200"
    unicode-range="U+0020-E001"
  />
<missing-glyph horiz-adv-x="1000" 
 />
    <glyph glyph-name=".notdef" horiz-adv-x="1000" 
 />
    <glyph glyph-name=".null" horiz-adv-x="0" 
 />
    <glyph glyph-name="nonmarkingreturn" horiz-adv-x="333" 
 />
    <glyph glyph-name="space" unicode=" " horiz-adv-x="315" 
 />
    <glyph glyph-name="exclam" unicode="!" horiz-adv-x="296" 
d="M237 712v-176l-47 -299h-84l-46 296v179h177zM238 180v-180h-180v180h180z" />
    <glyph glyph-name="quotedbl" unicode="&#x22;" horiz-adv-x="500" 
d="M196 389h-92l-28 304h147zM396 389h-92l-27 304h147z" />
    <glyph glyph-name="numbersign" unicode="#" 
d="M208 0h-146l32 169h-79v120h102l22 117h-78v120h100l31 167h144l-31 -167h87l31 167h145l-31 -167h82v-120h-104l-22 -117h81v-120h-103l-31 -169h-146l31 169h-86zM348 289l21 117h-86l-21 -117h86z" />
    <glyph glyph-name="dollar" unicode="$" 
d="M344 789v-79q115 -2 179 -55t64 -161h-157q-2 47 -20 70t-66 29v-164q38 -9 56 -13t52.5 -15t52 -20.5t41.5 -26.5t36 -36.5t21 -47t9 -61.5q0 -100 -70 -158.5t-198 -66.5v-87h-57v87q-127 2 -197.5 64t-76.5 180h172v-9q0 -50 26 -78t76 -31v182q-46 10 -73 17.5
t-65 24t-59 36.5t-36.5 53t-15.5 76q0 103 70 153.5t179 57.5v79h57zM287 593q-43 -1 -67.5 -21t-24.5 -53q0 -12 2 -21.5t9 -17t10.5 -12t16.5 -9.5t16 -6.5t20 -6.5t18 -5v152zM344 109q46 1 72.5 24t26.5 61q0 40 -26.5 57t-72.5 27v-169z" />
    <glyph glyph-name="percent" unicode="%" horiz-adv-x="1019" 
d="M753 714l-393 -738h-99l393 738h99zM248 704q84 0 128.5 -48.5t44.5 -140.5q0 -94 -43.5 -144.5t-125.5 -50.5q-83 0 -128.5 50t-45.5 142q0 91 44.5 141.5t125.5 50.5zM250 624q-56 0 -56 -113q0 -27 1.5 -43t6 -34t16 -26.5t29.5 -8.5q32 0 44.5 27.5t12.5 94.5
q0 54 -13 78.5t-41 24.5zM774 370q84 0 128.5 -48.5t44.5 -140.5q0 -94 -43.5 -144.5t-125.5 -50.5q-83 0 -128.5 50t-45.5 142q0 91 44.5 141.5t125.5 50.5zM776 290q-56 0 -56 -113q0 -27 1.5 -43t6 -34t16 -26.5t29.5 -8.5q32 0 44.5 27.5t12.5 94.5q0 54 -13 78.5
t-41 24.5z" />
    <glyph glyph-name="ampersand" unicode="&#x26;" horiz-adv-x="722" 
d="M518 347h145q-9 -58 -25.5 -95.5t-53.5 -78.5l149 -173h-206l-51 61q-49 -41 -95.5 -58.5t-105.5 -17.5q-103 0 -171.5 61t-68.5 153q0 76 41.5 124.5t117.5 86.5q-31 39 -46 68.5t-15 69.5q0 76 59 125.5t148 49.5q88 0 143 -49.5t55 -127.5q0 -63 -31 -104.5t-91 -74.5
l74 -90q18 27 28 70zM333 465q65 40 65 85q0 26 -16 42t-42 16q-25 0 -41.5 -15.5t-16.5 -38.5q0 -36 51 -89zM282 298q-83 -39 -83 -95q0 -32 25 -54.5t61 -22.5q48 0 101 48z" />
    <glyph glyph-name="quotesingle" unicode="'" horiz-adv-x="296" 
d="M192 389h-87l-30 304h147z" />
    <glyph glyph-name="parenleft" unicode="(" horiz-adv-x="296" 
d="M158 720h146q-101 -206 -101 -446q0 -225 104 -449h-148q-64 122 -92 223t-28 230q0 212 119 442z" />
    <glyph glyph-name="parenright" unicode=")" horiz-adv-x="296" 
d="M-10 720h147q120 -224 120 -441q0 -124 -29 -231.5t-90 -222.5h-145q53 124 76.5 221.5t23.5 222.5q0 245 -103 451z" />
    <glyph glyph-name="asterisk" unicode="*" horiz-adv-x="444" 
d="M419 545l-122 -39l76 -102l-77 -58l-76 107l-74 -107l-78 58l79 102l-122 39l31 92l119 -46l-3 130h100l-5 -130l119 46z" />
    <glyph glyph-name="plus" unicode="+" horiz-adv-x="600" 
d="M226 0v197h-196v146h196v197h148v-197h196v-146h-196v-197h-148z" />
    <glyph glyph-name="comma" unicode="," horiz-adv-x="316" 
d="M68 180h181v-151q0 -97 -43 -143t-138 -62v82q75 18 79 94h-79v180z" />
    <glyph glyph-name="hyphen" unicode="-" horiz-adv-x="407" 
d="M359 344v-148h-311v148h311z" />
    <glyph glyph-name="period" unicode="." horiz-adv-x="316" 
d="M249 180v-180h-181v180h181z" />
    <glyph glyph-name="slash" unicode="/" horiz-adv-x="407" 
d="M416 729l-267 -746h-158l267 746h158z" />
    <glyph glyph-name="zero" unicode="0" 
d="M321 702q128 0 201.5 -95.5t73.5 -262.5q0 -168 -75 -261t-210 -93q-130 0 -203.5 94t-73.5 260q0 72 16 134.5t48.5 113.5t89.5 80.5t133 29.5zM316 565q-61 0 -89.5 -54t-28.5 -168q0 -26 1 -45.5t4.5 -47.5t11.5 -47.5t20 -38t33 -28.5t48 -10q39 0 64.5 22t35.5 62
t13 69.5t3 71.5q0 41 -3.5 72.5t-14.5 67t-36 55t-62 19.5z" />
    <glyph glyph-name="one" unicode="1" 
d="M451 697v-697h-179v426h-167v125q90 3 142.5 34.5t62.5 111.5h141z" />
    <glyph glyph-name="two" unicode="2" 
d="M591 146v-146h-557v2q0 35 6 65.5t14.5 54t27 47t32.5 39t43.5 37t47.5 33.5t56 36.5t59 38.5q56 38 72 58q20 26 20 58q0 40 -25.5 63.5t-68.5 23.5q-108 0 -108 -140h-161q0 134 69 210t208 76q118 0 187.5 -59.5t69.5 -160.5q0 -31 -5.5 -57t-21.5 -49.5t-27 -37.5
t-40 -35.5t-41 -29t-49 -31.5q-14 -9 -40.5 -25.5t-37 -23.5t-26.5 -19.5t-31 -27.5h327z" />
    <glyph glyph-name="three" unicode="3" 
d="M208 466h-161q0 109 73 172.5t193 63.5q119 0 189 -53t70 -142q0 -51 -26.5 -87t-71.5 -47q58 -15 90 -55.5t32 -100.5q0 -112 -83.5 -171t-199.5 -59q-123 0 -203.5 62t-80.5 183v18h162q2 -61 28 -90.5t89 -29.5q52 0 82 24t30 66q0 41 -30 64.5t-83 23.5q-14 0 -51 -1
v114q12 -1 27 -1q29 0 61 4q31 4 49 22.5t18 45.5q0 34 -27 55t-71 21q-102 0 -105 -102z" />
    <glyph glyph-name="four" unicode="4" 
d="M597 297v-141h-91v-156h-170v156h-303v157l310 384h163v-400h91zM341 296v227l-183 -227h183z" />
    <glyph glyph-name="five" unicode="5" 
d="M553 693v-143h-310l-21 -123q41 26 71 36t70 10q105 0 166.5 -61.5t61.5 -165.5q0 -118 -78.5 -187t-212.5 -69q-124 0 -197.5 56t-80.5 168h167q4 -40 34.5 -63.5t80.5 -23.5q53 0 85 30.5t32 82.5q0 53 -31 84.5t-83 31.5q-70 0 -107 -53h-155l68 390h440z" />
    <glyph glyph-name="six" unicode="6" 
d="M587 513h-160q-22 63 -92 63q-28 0 -50.5 -11t-35.5 -27t-23 -41t-14.5 -46t-8.5 -49q34 39 71.5 56t89.5 17q102 0 167 -65.5t65 -168.5q0 -118 -78.5 -185t-197.5 -67q-96 0 -161 47.5t-92.5 121t-27.5 168.5q0 179 78.5 277.5t222.5 98.5q102 0 166.5 -49t80.5 -140z
M322 351q-46 0 -76 -32t-30 -81q0 -50 30.5 -82t77.5 -32q48 0 79 32t31 82t-31.5 81.5t-80.5 31.5z" />
    <glyph glyph-name="seven" unicode="7" 
d="M567 693v-139q-111 -118 -164 -253t-58 -301h-183q15 290 232 541h-334v152h507z" />
    <glyph glyph-name="eight" unicode="8" 
d="M163 368q-105 38 -105 141q0 66 41.5 111.5t98 63.5t120.5 18q48 0 91 -10t81 -31t60.5 -59t22.5 -89q0 -113 -105 -145q133 -35 133 -164q0 -100 -76 -158t-208 -58q-134 0 -211 57t-77 156q0 128 134 167zM314 581q-47 0 -76 -23t-29 -60t29.5 -60t78.5 -23t77.5 23
t28.5 62q0 38 -28.5 59.5t-80.5 21.5zM313 309q-53 0 -84.5 -26.5t-31.5 -70.5q0 -45 32.5 -71.5t86.5 -26.5q55 0 86 26t31 71t-32.5 71.5t-87.5 26.5z" />
    <glyph glyph-name="nine" unicode="9" 
d="M41 178h160q18 -65 94 -65q109 0 128 176q-36 -41 -71.5 -57.5t-89.5 -16.5q-103 0 -166.5 64.5t-63.5 169.5q0 111 76 182t195 71q135 0 210.5 -89t75.5 -249q1 -180 -76.5 -278t-220.5 -98q-105 0 -172 50.5t-79 139.5zM303 565q-47 0 -77.5 -31.5t-30.5 -80.5
t30.5 -81t77.5 -32t78.5 31.5t31.5 80.5t-31.5 81t-78.5 32z" />
    <glyph glyph-name="colon" unicode=":" horiz-adv-x="316" 
d="M249 509v-180h-181v180h181zM249 180v-180h-181v180h181z" />
    <glyph glyph-name="semicolon" unicode=";" horiz-adv-x="316" 
d="M68 180h181v-151q0 -97 -43 -143t-138 -62v82q75 18 79 94h-79v180zM249 509v-180h-181v180h181z" />
    <glyph glyph-name="less" unicode="&#x3c;" horiz-adv-x="600" 
d="M30 195v151l540 211v-156l-369 -131l369 -131v-156z" />
    <glyph glyph-name="equal" unicode="=" horiz-adv-x="600" 
d="M30 317v146h540v-146h-540zM30 77v146h540v-146h-540z" />
    <glyph glyph-name="greater" unicode="&#x3e;" horiz-adv-x="600" 
d="M570 195l-540 -212v156l370 131l-370 131v156l540 -211v-151z" />
    <glyph glyph-name="question" unicode="?" horiz-adv-x="574" 
d="M204 479h-176q5 117 73 183t194 66q102 0 175 -54t73 -152q0 -53 -18.5 -88t-59.5 -61q-7 -4 -23.5 -14.5t-21 -13.5l-16.5 -11t-14.5 -11t-10.5 -10.5t-9.5 -12t-6 -12t-5 -15t-1.5 -17t-1 -21.5h-158v25q0 65 18.5 99t73.5 71q44 29 57 46t13 43q0 31 -18.5 47.5
t-52.5 16.5q-85 0 -85 -104zM365 180v-180h-180v180h180z" />
    <glyph glyph-name="at" unicode="@" horiz-adv-x="800" 
d="M695 142l37 -49q-81 -57 -149.5 -84t-156.5 -27q-165 0 -279 101.5t-114 264.5q0 161 116.5 271t287.5 110q92 0 169 -34t125.5 -104t48.5 -164q0 -60 -25 -118.5t-75.5 -99.5t-112.5 -41q-78 0 -91 81q-47 -84 -133 -84q-62 0 -100 43t-38 114q0 97 61 169t143 72
q75 0 103 -60l12 42h110l-68 -232q-5 -20 -5 -31q0 -38 35 -38q43 0 77 58.5t34 132.5q0 104 -74 168t-195 64q-144 0 -238.5 -91.5t-94.5 -230.5q0 -138 93.5 -219.5t233.5 -81.5q139 0 263 98zM480 441q0 19 -12 31t-31 12q-43 0 -73 -63.5t-30 -110.5q0 -66 46 -66
q38 0 63 61q37 96 37 136z" />
    <glyph glyph-name="A" unicode="A" horiz-adv-x="704" 
d="M446 713l266 -713h-192l-46 130h-246l-47 -130h-190l267 713h188zM432 264l-80 249l-82 -249h162z" />
    <glyph glyph-name="B" unicode="B" horiz-adv-x="722" 
d="M63 0v712h358q101 0 165.5 -43t64.5 -136q0 -51 -23 -85t-70 -59q128 -42 128 -175q0 -101 -70 -160q-29 -24 -66 -36.5t-65 -15t-76 -2.5h-346zM245 432h133q92 0 92 69q0 40 -26 54.5t-71 14.5h-128v-138zM245 147h147q50 0 78 16.5t28 64.5q0 47 -30 64.5t-81 17.5
h-142v-163z" />
    <glyph glyph-name="C" unicode="C" horiz-adv-x="759" 
d="M540 278h185q-1 -41 -7.5 -64.5t-25.5 -61.5q-83 -169 -294 -169q-163 0 -259.5 105.5t-96.5 269.5t100 267.5t259 103.5q125 0 218 -73t102 -195h-183q-24 112 -141 112q-76 0 -121.5 -59.5t-45.5 -159.5q0 -97 45.5 -155t121.5 -58q123 0 143 137z" />
    <glyph glyph-name="D" unicode="D" horiz-adv-x="759" 
d="M66 0v712h305q165 0 257.5 -92.5t92.5 -259.5q0 -179 -91 -269.5t-269 -90.5h-295zM251 155h102q181 0 181 200q0 97 -49.5 150t-144.5 53h-89v-403z" />
    <glyph glyph-name="E" unicode="E" horiz-adv-x="685" 
d="M634 712v-150h-385v-123h352v-144h-352v-139h394v-156h-579v712h570z" />
    <glyph glyph-name="F" unicode="F" horiz-adv-x="611" 
d="M589 712v-155h-339v-137h294v-146h-294v-274h-187v712h526z" />
    <glyph glyph-name="G" unicode="G" horiz-adv-x="778" 
d="M724 388v-388h-119l-11 77q-48 -53 -96.5 -73t-123.5 -20q-151 0 -243 100t-92 264q0 171 99 275.5t262 104.5q131 0 215.5 -67t98.5 -191h-180q-29 101 -137 101q-60 0 -99.5 -32.5t-54.5 -79.5t-15 -106q0 -99 42.5 -160t136.5 -61q65 0 98.5 29.5t48.5 92.5h-129v134
h299z" />
    <glyph glyph-name="H" unicode="H" horiz-adv-x="741" 
d="M678 712v-712h-187v294h-241v-294h-187v712h187v-254h241v254h187z" />
    <glyph glyph-name="I" unicode="I" horiz-adv-x="315" 
d="M251 712v-712h-187v712h187z" />
    <glyph glyph-name="J" unicode="J" horiz-adv-x="593" 
d="M345 712h187v-477q0 -252 -252 -252q-128 0 -194 75q-34 40 -44 85.5t-10 113.5v25h170v-19v-27t1.5 -24.5t4 -25.5t8 -20.5t13.5 -18t20.5 -10t28.5 -4.5q36 0 51.5 21.5t15.5 72.5v485z" />
    <glyph glyph-name="K" unicode="K" horiz-adv-x="741" 
d="M716 712l-264 -279l297 -433h-231l-192 299l-76 -79v-220h-184v712h182v-272l238 272h230z" />
    <glyph glyph-name="L" unicode="L" horiz-adv-x="611" 
d="M583 160v-160h-519v712h187v-552h332z" />
    <glyph glyph-name="M" unicode="M" horiz-adv-x="926" 
d="M65 0v712h270l130 -494l133 494h263v-712h-176l9 543l-159 -543h-143l-158 542l6 -542h-175z" />
    <glyph glyph-name="N" unicode="N" horiz-adv-x="741" 
d="M63 0v712h186l257 -450l-8 450h180v-712h-181l-260 457l5 -457h-179z" />
    <glyph glyph-name="O" unicode="O" horiz-adv-x="778" 
d="M741 355q0 -161 -94.5 -266.5t-252.5 -105.5q-163 0 -260 104t-97 269q0 161 98.5 267t256.5 106q159 0 254 -101.5t95 -272.5zM551 361q0 101 -43 159t-118 58t-119 -59.5t-44 -160.5q0 -104 43.5 -163t120.5 -59q76 0 118 59t42 166z" />
    <glyph glyph-name="P" unicode="P" horiz-adv-x="685" 
d="M64 0v712h313q131 0 206 -57t75 -183q0 -116 -68 -175t-183 -59h-157v-238h-186zM250 382h105q29 0 47 2.5t37.5 10.5t29 26.5t9.5 48.5q0 49 -28 69.5t-80 20.5h-120v-178z" />
    <glyph glyph-name="Q" unicode="Q" horiz-adv-x="778" 
d="M738 15l-85 -89l-103 99q-65 -43 -168 -43q-153 0 -249 103t-96 267q0 165 100.5 271t255.5 106t250.5 -104.5t95.5 -274.5q0 -77 -21 -134.5t-70 -113.5zM453 292l71 -68q27 44 27 124q0 110 -42 169.5t-120 59.5q-75 0 -119.5 -59.5t-44.5 -160.5q0 -103 43.5 -164
t117.5 -61q24 0 50 11l-65 62z" />
    <glyph glyph-name="R" unicode="R" horiz-adv-x="722" 
d="M62 0v712h371q106 0 173.5 -52.5t67.5 -153.5q0 -124 -110 -174q71 -24 90 -92q13 -44 22 -151q0 -3 1 -13.5t1.5 -14.5t1.5 -12.5t2.5 -13t3.5 -11.5t5.5 -12.5t7.5 -11.5h-189q-8 19 -12 43.5t-6 59.5t-3 46q-7 64 -35 90t-92 26h-114v-265h-186zM248 397h131
q53 0 82.5 18t29.5 70q0 83 -114 83h-129v-171z" />
    <glyph glyph-name="S" unicode="S" horiz-adv-x="667" 
d="M613 498h-177q-6 87 -116 87q-44 0 -69 -16.5t-25 -44.5q0 -22 11.5 -34t42.5 -20q186 -49 251 -79q111 -52 111 -173q0 -107 -82.5 -170.5t-222.5 -63.5q-148 0 -232 67t-86 188h187q0 -113 143 -113q106 0 106 72q0 29 -20.5 45.5t-73.5 30.5q-101 28 -176 56
q-139 50 -139 177q0 101 77.5 160.5t209.5 59.5q133 0 205.5 -59t74.5 -170z" />
    <glyph glyph-name="T" unicode="T" horiz-adv-x="648" 
d="M629 712v-158h-211v-554h-188v554h-211v158h610z" />
    <glyph glyph-name="U" unicode="U" horiz-adv-x="741" 
d="M494 712h187v-427q0 -153 -78.5 -225.5t-233.5 -72.5q-158 0 -233.5 72.5t-75.5 225.5v427h187v-431q0 -69 28.5 -105t97.5 -36q121 0 121 141v431z" />
    <glyph glyph-name="V" unicode="V" horiz-adv-x="648" 
d="M428 0h-214l-226 712h195l139 -529l142 529h196z" />
    <glyph glyph-name="W" unicode="W" horiz-adv-x="963" 
d="M382 0h-189l-194 712h187l102 -520l106 520h177l100 -520l106 520h187l-198 -712h-186l-100 492z" />
    <glyph glyph-name="X" unicode="X" horiz-adv-x="704" 
d="M247 375l-232 337h219l124 -220l121 220h209l-227 -337l252 -375h-226l-137 238l-143 -238h-215z" />
    <glyph glyph-name="Y" unicode="Y" horiz-adv-x="667" 
d="M688 712l-262 -446v-266h-185v269l-262 443h212l143 -267l146 267h208z" />
    <glyph glyph-name="Z" unicode="Z" horiz-adv-x="667" 
d="M628 712v-140l-368 -412h381v-160h-619v150l361 404h-339v158h584z" />
    <glyph glyph-name="bracketleft" unicode="[" horiz-adv-x="370" 
d="M363 712v-132h-138v-617h138v-131h-294v880h294z" />
    <glyph glyph-name="backslash" unicode="\" horiz-adv-x="407" 
d="M416 -17h-158l-267 746h158z" />
    <glyph glyph-name="bracketright" unicode="]" horiz-adv-x="370" 
d="M301 712v-880h-294v131h138v618h-138v131h294z" />
    <glyph glyph-name="asciicircum" unicode="^" horiz-adv-x="600" 
d="M51 255l183 438h132l183 -438h-156l-94 262l-92 -262h-156z" />
    <glyph glyph-name="underscore" unicode="_" horiz-adv-x="500" 
d="M0 -125v50h500v-50h-500z" />
    <glyph glyph-name="grave" unicode="`" horiz-adv-x="296" 
d="M132 717l98 -144h-119l-162 144h183z" />
    <glyph glyph-name="a" unicode="a" horiz-adv-x="593" 
d="M558 0h-172q-7 22 -8 49q-71 -65 -171 -65q-84 0 -132.5 42.5t-48.5 116.5q0 37 13 65t30 43.5t50 27.5t56 16.5t64 10.5q97 15 109 20q27 11 27 42q0 55 -79 55q-41 0 -59.5 -13t-27.5 -52h-160q16 173 249 173q125 0 190 -47q29 -21 39.5 -49t10.5 -80v-207
q0 -102 20 -148zM375 242q-12 -6 -28 -11t-25.5 -7t-31 -6.5t-27.5 -5.5q-63 -13 -63 -63q0 -29 18 -45t49 -16q45 0 76.5 26.5t31.5 74.5v53z" />
    <glyph glyph-name="b" unicode="b" 
d="M225 712v-255q66 72 152 72q98 0 162 -77q57 -71 57 -189q0 -125 -63.5 -200.5t-167.5 -76.5q-51 0 -82.5 17.5t-64.5 57.5v-61h-162v712h169zM323 399q-47 0 -75 -37t-28 -99q0 -66 27.5 -103.5t76.5 -37.5q47 0 74 38t27 103q0 62 -28 99t-74 37z" />
    <glyph glyph-name="c" unicode="c" horiz-adv-x="593" 
d="M403 203h163q-14 -104 -81.5 -160t-179.5 -56q-120 0 -195 73.5t-75 193.5q0 124 75 200t198 76q108 0 177.5 -55t76.5 -146h-164q-6 37 -29.5 57.5t-58.5 20.5q-50 0 -77.5 -40t-27.5 -112q0 -68 27 -105t77 -37q78 0 94 90z" />
    <glyph glyph-name="d" unicode="d" 
d="M573 712v-712h-162v61q-53 -74 -148 -74q-103 0 -166 75t-63 199q0 121 60.5 194.5t160.5 73.5q94 0 149 -73v256h169zM307 398q-49 0 -75.5 -36t-26.5 -102t26.5 -102t75.5 -36t76 36t27 101t-27.5 102t-75.5 37z" />
    <glyph glyph-name="e" unicode="e" horiz-adv-x="611" 
d="M583 217h-384q1 -57 32.5 -88.5t85.5 -31.5q64 0 97 60h159q-25 -83 -92.5 -128t-165.5 -45q-123 0 -202.5 72.5t-79.5 195.5q0 122 77 199.5t199 77.5q127 0 200.5 -79.5t73.5 -217.5v-15zM416 314q-4 46 -31.5 73.5t-74.5 27.5q-93 0 -109 -101h215z" />
    <glyph glyph-name="f" unicode="f" horiz-adv-x="370" 
d="M371 711v-121q-22 2 -46 2q-38 0 -50.5 -8.5t-12.5 -36.5v-31h102v-112h-100v-404h-170v404h-82v112h82v23q0 96 47 135t150 39q26 0 80 -2z" />
    <glyph glyph-name="g" unicode="g" horiz-adv-x="611" 
d="M396 516h163v-448q0 -132 -65 -191.5t-196 -59.5q-231 0 -253 166h170q14 -57 85 -57q57 0 76 29t19 87v57q-55 -73 -149 -73q-101 0 -159.5 67.5t-58.5 182.5t60.5 184.5t161.5 69.5q51 0 83 -18t63 -61v65zM295 402q-47 0 -74 -33.5t-27 -91.5q0 -60 27.5 -94.5
t74.5 -34.5q49 0 75.5 33.5t26.5 95.5q0 58 -27.5 91.5t-75.5 33.5z" />
    <glyph glyph-name="h" unicode="h" 
d="M225 712v-263q36 42 73 61t91 19q85 0 134.5 -46.5t49.5 -137.5v-345h-169v304q0 87 -82 87q-97 0 -97 -123v-268h-167v712h167z" />
    <glyph glyph-name="i" unicode="i" horiz-adv-x="296" 
d="M233 712v-128h-170v128h170zM233 516v-516h-170v516h170z" />
    <glyph glyph-name="j" unicode="j" horiz-adv-x="296" 
d="M64 516h171v-510q0 -104 -41 -143.5t-151 -39.5q-23 0 -67 2v135q12 -1 23 -1q45 0 55 14.5t10 61.5v481zM235 712v-130h-171v130h171z" />
    <glyph glyph-name="k" unicode="k" horiz-adv-x="593" 
d="M575 516l-189 -193l216 -323h-203l-129 209l-48 -44v-165h-166v712h166v-363l158 167h195z" />
    <glyph glyph-name="l" unicode="l" horiz-adv-x="296" 
d="M233 712v-712h-170v712h170z" />
    <glyph glyph-name="m" unicode="m" horiz-adv-x="926" 
d="M220 516v-68q59 82 158 82q107 0 146 -83q39 44 74 63.5t90 19.5q88 0 135 -51t47 -139v-340h-171v300q0 94 -71 94q-38 0 -59 -24.5t-21 -66.5v-303h-170v306q0 42 -14 66t-54 24q-43 0 -63 -28.5t-20 -74.5v-293h-170v516h163z" />
    <glyph glyph-name="n" unicode="n" 
d="M220 516v-68q64 82 167 82q87 0 137 -48.5t50 -141.5v-340h-172v293q0 47 -16 73t-62 26t-71.5 -27t-25.5 -77v-288h-170v516h163z" />
    <glyph glyph-name="o" unicode="o" horiz-adv-x="611" 
d="M308 531q120 0 195 -75.5t75 -196.5q0 -122 -75.5 -198.5t-196.5 -76.5q-122 0 -197.5 76t-75.5 198q0 121 76.5 197t198.5 76zM304 405q-48 0 -74.5 -38.5t-26.5 -108.5q0 -72 27 -111t76 -39t75.5 39.5t26.5 111.5q0 70 -27 108t-77 38z" />
    <glyph glyph-name="p" unicode="p" 
d="M219 516v-60q54 73 151 73q102 0 164 -75t62 -199q0 -122 -60 -195t-160 -73q-93 0 -150 72v-234h-169v691h162zM321 394q-47 0 -74 -37t-27 -101q0 -66 27 -102t77 -36q49 0 75.5 35t26.5 100q0 69 -27 105t-78 36z" />
    <glyph glyph-name="q" unicode="q" 
d="M573 516v-691h-169v235q-35 -38 -68 -55.5t-82 -17.5q-100 0 -160 73t-60 194q-1 124 61.5 199.5t164.5 75.5q96 0 151 -72v59h162zM306 395q-49 0 -75.5 -37.5t-26.5 -105.5q0 -64 26.5 -99t75.5 -35q50 0 77 36.5t27 103.5q0 64 -27.5 100.5t-76.5 36.5z" />
    <glyph glyph-name="r" unicode="r" horiz-adv-x="426" 
d="M427 523v-152q-40 10 -67 10q-128 0 -128 -146v-235h-169v516h162l-1 -88q27 51 64.5 75.5t94.5 24.5q21 0 44 -5z" />
    <glyph glyph-name="s" unicode="s" horiz-adv-x="556" 
d="M512 365h-156q-5 33 -25 46.5t-58 13.5q-68 0 -68 -42q0 -7 2 -13t7 -10.5t9 -7t12 -5t12 -4t13 -3t12 -2.5q110 -23 156 -39q99 -35 99 -135q0 -83 -66 -130.5t-182 -47.5q-106 0 -176 42.5t-75 141.5h161q5 -73 94 -73q36 0 57 14t21 39q0 21 -17.5 32t-69.5 22
q-84 17 -135 34q-101 35 -101 132q0 78 62 119.5t178 41.5q47 0 86.5 -8.5t72.5 -26.5t53 -51.5t22 -79.5z" />
    <glyph glyph-name="t" unicode="t" horiz-adv-x="389" 
d="M370 516v-110h-106v-213q0 -41 10 -56.5t51 -15.5q30 0 45 2v-125q-59 -5 -97 -5q-103 0 -141 37t-38 137v239h-85v110h85v158h170v-158h106z" />
    <glyph glyph-name="u" unicode="u" 
d="M572 516v-516h-163v69q-62 -84 -166 -84q-92 0 -138.5 56.5t-46.5 151.5v323h172v-285q0 -27 2 -42t9 -31.5t23.5 -24t43.5 -7.5q55 0 75 32t20 89v269h169z" />
    <glyph glyph-name="v" unicode="v" horiz-adv-x="537" 
d="M369 516h173l-174 -516h-196l-174 516h178l96 -335z" />
    <glyph glyph-name="w" unicode="w" horiz-adv-x="833" 
d="M671 0h-172l-85 345l-79 -345h-173l-162 516h177l83 -338l78 338h159l77 -337l86 337h173z" />
    <glyph glyph-name="x" unicode="x" horiz-adv-x="537" 
d="M174 271l-165 245h188l73 -122l73 122h180l-162 -242l184 -274h-187l-91 150l-88 -150h-186z" />
    <glyph glyph-name="y" unicode="y" horiz-adv-x="537" 
d="M372 516h173l-187 -521q-32 -90 -73.5 -131t-129.5 -41h-111v137q10 0 28 -0.5t27 -0.5q21 0 34.5 4.5t21 16.5t11 21.5t8.5 32.5l-181 482h180l100 -341z" />
    <glyph glyph-name="z" unicode="z" horiz-adv-x="537" 
d="M496 516v-126l-258 -259h278v-131h-495v130l256 257h-235v129h454z" />
    <glyph glyph-name="braceleft" unicode="{" horiz-adv-x="370" 
d="M-1 221v99q59 10 85.5 41t26.5 89v73q0 176 260 189v-93q-59 -4 -84 -33.5t-25 -91.5v-44q0 -168 -168 -179q82 -9 125 -46.5t43 -119.5v-55q0 -61 25.5 -92t83.5 -33v-93q-126 6 -193 52.5t-67 163.5v62q0 48 -26.5 74t-85.5 37z" />
    <glyph glyph-name="bar" unicode="|" horiz-adv-x="222" 
d="M38 -214v1000h147v-1000h-147z" />
    <glyph glyph-name="braceright" unicode="}" horiz-adv-x="370" 
d="M371 221q-59 -11 -85.5 -37t-26.5 -74v-62q0 -117 -67 -163.5t-193 -52.5v93q58 2 83.5 33t25.5 92v55q0 82 43 119.5t125 46.5q-168 11 -168 179v44q0 62 -25 91.5t-84 33.5v93q260 -13 260 -189v-73q0 -58 26.5 -89t85.5 -41v-99z" />
    <glyph glyph-name="asciitilde" unicode="~" horiz-adv-x="600" 
d="M484 372h96q-7 -94 -48 -150.5t-102 -56.5q-41 0 -121 26q-16 5 -41 13.5t-33.5 11t-22 6t-22 4.5t-18.5 1q-49 0 -57 -56h-94q2 47 16.5 90.5t50 78.5t85.5 35q15 0 36.5 -4t35.5 -8t39.5 -12t32.5 -10t25 -8t28.5 -9t25.5 -6t27 -3q28 0 42 12.5t19 44.5z" />
    <glyph glyph-name="sterling" unicode="&#xa3;" 
d="M585 477h-166q-3 52 -21.5 79t-68.5 27q-34 0 -56 -21t-22 -53q0 -18 6.5 -36t17.5 -39t15 -32h120v-103h-89q6 -28 6 -43q0 -64 -69 -122q38 16 76 16q24 0 65 -9q36 -9 54 -9q51 0 90 46l69 -122q-73 -69 -168 -69q-46 0 -90 12q-88 25 -128 25q-47 0 -107 -39l-69 101
q35 25 54.5 42t37 47.5t17.5 66.5q0 26 -13 57h-105v103h66q-41 55 -41 118q0 91 72 146.5t190 55.5q121 0 187.5 -63t69.5 -182z" />
    <glyph glyph-name="currency" unicode="&#xa4;" 
d="M52 170l67 67q-28 50 -28 109q0 52 28 109l-67 67l87 88l68 -67q65 28 107 28q56 0 110 -29l67 67l87 -87l-66 -66q29 -65 29 -111q0 -54 -29 -109l67 -66l-87 -88l-67 67q-56 -28 -109 -28q-52 0 -110 28l-67 -67zM315 441q-39 0 -67 -27.5t-28 -67.5t28 -67.5t67 -27.5
q40 0 68 27.5t28 67.5t-28 67.5t-68 27.5z" />
    <glyph glyph-name="brokenbar" unicode="&#xa6;" horiz-adv-x="222" 
d="M38 -89v250h147v-250h-147zM38 411v250h147v-250h-147z" />
    <glyph glyph-name="section" unicode="&#xa7;" 
d="M547 533h-149q-5 70 -73 70q-28 0 -45.5 -14.5t-17.5 -36.5q0 -12 5.5 -22t20.5 -20.5t26 -16t39.5 -18.5t42.5 -20l103 -50q100 -49 100 -142q0 -55 -27.5 -93t-76.5 -54q30 -28 41.5 -52.5t11.5 -59.5q0 -91 -67.5 -139t-163.5 -48q-107 0 -170 53t-63 142v10h148
q4 -40 24 -58.5t61 -18.5q33 0 51 15.5t18 44.5q0 23 -18.5 38.5t-71.5 40.5l-157 73q-105 49 -105 150q0 110 108 147q-23 26 -32.5 46.5t-9.5 52.5q0 76 63.5 125t162.5 49q98 0 157.5 -52t63.5 -142zM225 378q-46 -15 -46 -52q0 -31 42 -51l185 -89q47 12 47 53
q0 5 -1 10t-4 9t-5.5 7.5t-7.5 7.5t-8 6t-9.5 5.5t-9 5t-9.5 5l-9 4.5z" />
    <glyph glyph-name="copyright" unicode="&#xa9;" horiz-adv-x="800" 
d="M400 729q154 1 264 -108.5t110 -264.5q0 -154 -110 -264t-264 -110t-263.5 109.5t-110.5 264.5q0 154 109.5 263.5t264.5 109.5zM400 663q-128 0 -217.5 -89.5t-89.5 -217.5t89.5 -217.5t217.5 -89.5t217.5 89.5t89.5 217.5q0 127 -90 217t-217 90zM589 297
q-8 -72 -58 -116.5t-123 -44.5q-90 0 -149.5 62.5t-59.5 157.5q0 98 56.5 160t144.5 62q78 0 131 -45.5t58 -117.5h-98q-13 74 -85 74q-43 0 -67 -34.5t-24 -96.5q0 -63 25.5 -98t70.5 -35q37 0 55 18t25 54h98z" />
    <glyph glyph-name="guillemotleft" unicode="&#xab;" horiz-adv-x="444" 
d="M398 468v-137l-83 -66l83 -65v-139l-158 125v157zM202 468v-135l-83 -66l83 -67v-139l-159 127v155z" />
    <glyph glyph-name="logicalnot" unicode="&#xac;" horiz-adv-x="600" 
d="M30 317v146h540v-386h-151v240h-389z" />
    <glyph glyph-name="registered" unicode="&#xae;" horiz-adv-x="400" 
d="M200 729q74 0 126 -52t52 -125q0 -74 -52 -126t-126 -52t-126 52t-52 126q0 73 52 124.5t126 52.5zM200 692q-58 0 -99 -41t-41 -99q0 -59 41 -100t99 -41t99 41.5t41 99.5t-41 99t-99 41zM122 652h74q41 0 65.5 -12t24.5 -49q0 -36 -35 -48q33 -15 33 -57v-12
q0 -10 4 -22h-56q-4 9 -4 26q-1 28 -7.5 35t-29.5 7h-10v-68h-59v200zM181 563h12q35 0 35 23q0 22 -35 22h-12v-45z" />
    <glyph glyph-name="degree" unicode="&#xb0;" horiz-adv-x="400" 
d="M200 702q71 0 122 -50.5t51 -121.5q0 -72 -51 -122.5t-122 -50.5t-122 50.5t-51 122.5q0 71 51 121.5t122 50.5zM200 590q-25 0 -42.5 -17.5t-17.5 -42.5t17.5 -43t42.5 -18t42.5 18t17.5 43t-17.5 42.5t-42.5 17.5z" />
    <glyph glyph-name="plusminus" unicode="&#xb1;" horiz-adv-x="600" 
d="M226 139v145h-196v146h196v154h148v-154h196v-146h-196v-145h-148zM30 -43v146h540v-146h-540z" />
    <glyph glyph-name="mu" unicode="&#xb5;" 
d="M58 -175v691h172v-265q0 -25 0.5 -38.5t5 -36t12.5 -34.5t24 -21.5t40 -9.5q38 0 59.5 22.5t26.5 48.5t5 64v270h169v-516h-158v48q-45 -56 -110 -56q-50 0 -92 36v-203h-154z" />
    <glyph glyph-name="paragraph" unicode="&#xb6;" horiz-adv-x="620" 
d="M615 595h-49v-784h-141v784h-87v-784h-141v421q-195 23 -195 224q0 119 73 187.5t193 68.5h347v-117z" />
    <glyph glyph-name="periodcentered" unicode="&#xb7;" horiz-adv-x="315" 
d="M249 377v-180h-181v180h181z" />
    <glyph glyph-name="guillemotright" unicode="&#xbb;" horiz-adv-x="444" 
d="M242 470l160 -127v-156l-160 -125v135l85 66l-85 68v139zM46 469l159 -126v-155l-159 -124v133l84 67l-84 65v140z" />
    <glyph glyph-name="divide" unicode="&#xf7;" horiz-adv-x="600" 
d="M30 197v146h540v-146h-540zM218 2v153h164v-153h-164zM218 386v153h164v-153h-164z" />
    <glyph glyph-name="florin" unicode="&#x192;" 
d="M499 421l-18 -107h-98l-53 -289q-21 -116 -67 -157t-168 -41q-36 0 -69 2l20 122q9 -1 29 -1q35 0 51.5 9.5t23.5 44.5l58 310h-92l19 107h93l20 112q19 105 69 146.5t157 41.5q23 0 80 -3l-22 -122q-21 1 -37 1q-22 0 -35 -4t-20.5 -16.5t-10.5 -23t-7 -34.5l-18 -98h95
z" />
    <glyph glyph-name="afii10023" unicode="&#x401;" horiz-adv-x="685" 
d="M634 712v-150h-385v-123h352v-144h-352v-139h394v-156h-579v712h570zM546 891v-124h-155v124h155zM326 891v-124h-154v124h154z" />
    <glyph glyph-name="afii10051" unicode="&#x402;" horiz-adv-x="814" 
d="M519 -144q-55 0 -103 16v151q34 -16 70 -16q51 0 82 40.5t31 121.5q0 68 -29 102.5t-79 34.5t-79 -35.5t-29 -103.5v-167h-187v555h-184v157h605v-157h-234v-154q55 51 143 51q113 0 187 -79.5t74 -203.5q0 -132 -77.5 -222.5t-190.5 -90.5z" />
    <glyph glyph-name="afii10052" unicode="&#x403;" horiz-adv-x="600" 
d="M63 0v712h526v-158h-339v-554h-187zM486 903l-163 -144h-115l94 144h184z" />
    <glyph glyph-name="afii10053" unicode="&#x404;" horiz-adv-x="759" 
d="M725 258q-9 -124 -103 -199.5t-223 -75.5q-163 0 -259.5 105t-96.5 270q0 164 100 267.5t259 103.5q120 0 211.5 -68t106.5 -183h-185q-30 95 -137 95q-58 0 -98.5 -35t-57.5 -98h231v-144h-237q13 -72 56 -113.5t106 -41.5q115 0 139 117h188z" />
    <glyph glyph-name="afii10054" unicode="&#x405;" horiz-adv-x="667" 
d="M613 498h-177q-6 87 -116 87q-44 0 -69 -16.5t-25 -44.5q0 -22 11.5 -34t42.5 -20q186 -49 251 -79q111 -52 111 -173q0 -107 -82.5 -170.5t-222.5 -63.5q-148 0 -232 67t-86 188h187q0 -113 143 -113q106 0 106 72q0 29 -20.5 45.5t-73.5 30.5q-101 28 -176 56
q-139 50 -139 177q0 101 77.5 160.5t209.5 59.5q133 0 205.5 -59t74.5 -170z" />
    <glyph glyph-name="afii10055" unicode="&#x406;" horiz-adv-x="315" 
d="M251 712v-712h-187v712h187z" />
    <glyph glyph-name="afii10056" unicode="&#x407;" horiz-adv-x="315" 
d="M251 712v-712h-187v712h187zM350 891v-124h-155v124h155zM130 891v-124h-154v124h154z" />
    <glyph glyph-name="afii10057" unicode="&#x408;" horiz-adv-x="593" 
d="M345 712h187v-477q0 -252 -252 -252q-128 0 -194 75q-34 40 -44 85.5t-10 113.5v25h170v-19v-27t1.5 -24.5t4 -25.5t8 -20.5t13.5 -18t20.5 -10t28.5 -4.5q36 0 51.5 21.5t15.5 72.5v485z" />
    <glyph glyph-name="afii10058" unicode="&#x409;" horiz-adv-x="1082" 
d="M1055 234q0 -117 -75.5 -176t-200.5 -59h-304v556l-142 -1l-9 -277q-5 -145 -63.5 -218t-154.5 -73q-59 0 -98 13v149q22 -9 55 -9q24 0 39 9.5t27 47.5t14 107l12 409h506v-257h126q119 0 193.5 -54t74.5 -167zM873 232q0 35 -25.5 48.5t-81.5 13.5h-105v-138h106
q106 0 106 76z" />
    <glyph glyph-name="afii10059" unicode="&#x40a;" horiz-adv-x="1082" 
d="M778 0h-304v295h-225v-295h-186v712h186v-257h225v257h186v-257h126q119 0 193.5 -54t74.5 -167q0 -116 -75.5 -175t-200.5 -59zM765 295h-105v-139h106q106 0 106 76q0 35 -26 49t-81 14z" />
    <glyph glyph-name="afii10060" unicode="&#x40b;" horiz-adv-x="814" 
d="M583 0v207q0 56 -20.5 77t-74.5 21q-39 0 -102 -13v-292h-187v555h-184v157h605v-157h-234v-112q82 16 128 16q129 0 192.5 -59.5t63.5 -194.5v-205h-187z" />
    <glyph glyph-name="afii10061" unicode="&#x40c;" horiz-adv-x="741" 
d="M716 712l-264 -279l297 -433h-231l-192 299l-76 -79v-220h-184v712h182v-272l238 272h230zM536 903l-163 -144h-115l94 144h184z" />
    <glyph glyph-name="afii10062" unicode="&#x40e;" horiz-adv-x="704" 
d="M543 898q0 -75 -53 -113t-130 -38t-130 38t-53 113h86q6 -28 33 -43t64 -15t64 15t33 43h86zM459 189q-52 -108 -105 -154.5t-144 -46.5q-48 0 -107 16v154q39 -14 85 -14q29 0 47 14t18 35q0 22 -27 74l-229 445h211l153 -350l141 350h208z" />
    <glyph glyph-name="afii10145" unicode="&#x40f;" horiz-adv-x="741" 
d="M457 0v-175h-174v175h-220v712h187v-554h241v554h187v-712h-221z" />
    <glyph glyph-name="afii10017" unicode="&#x410;" horiz-adv-x="704" 
d="M446 713l266 -713h-192l-46 130h-246l-47 -130h-190l267 713h188zM432 264l-80 249l-82 -249h162z" />
    <glyph glyph-name="afii10018" unicode="&#x411;" horiz-adv-x="722" 
d="M685 240q0 -125 -71.5 -182.5t-209.5 -57.5h-341v712h561v-150h-378v-88h168q128 0 199.5 -58.5t71.5 -175.5zM497 241q0 28 -9.5 46.5t-28.5 27t-38 11.5t-47 3h-128v-178h133q62 0 90 20t28 70z" />
    <glyph glyph-name="afii10019" unicode="&#x412;" horiz-adv-x="722" 
d="M63 0v712h358q101 0 165.5 -43t64.5 -136q0 -51 -23 -85t-70 -59q128 -42 128 -175q0 -101 -70 -160q-29 -24 -66 -36.5t-65 -15t-76 -2.5h-346zM245 432h133q92 0 92 69q0 40 -26 54.5t-71 14.5h-128v-138zM245 147h147q50 0 78 16.5t28 64.5q0 47 -30 64.5t-81 17.5
h-142v-163z" />
    <glyph glyph-name="afii10020" unicode="&#x413;" horiz-adv-x="600" 
d="M63 0v712h526v-158h-339v-554h-187z" />
    <glyph glyph-name="afii10021" unicode="&#x414;" horiz-adv-x="778" 
d="M767 -175h-174v175h-414v-175h-174v333h74q43 69 70 211t27 260v83h509v-554h82v-333zM503 158v402h-152v-32q0 -96 -21 -199t-54 -171h227z" />
    <glyph glyph-name="afii10022" unicode="&#x415;" horiz-adv-x="685" 
d="M634 712v-150h-385v-123h352v-144h-352v-139h394v-156h-579v712h570z" />
    <glyph glyph-name="afii10024" unicode="&#x416;" horiz-adv-x="1100" 
d="M394 292l-180 -292h-221l283 424l-260 288h221l224 -280v280h179v-280l224 280h221l-260 -288l283 -424h-221l-180 292l-65 -72v-220h-183v220z" />
    <glyph glyph-name="afii10025" unicode="&#x417;" horiz-adv-x="667" 
d="M638 226q0 -107 -84.5 -175t-211.5 -68q-148 0 -232 67t-86 188h187q0 -112 130 -112q47 0 77 24t30 62q0 43 -31.5 67t-83.5 24h-66v130q21 -2 54 -2q56 0 82.5 22.5t26.5 57.5q0 30 -26 53t-67 23q-110 0 -116 -87h-177q2 110 78 169.5t211 59.5q128 0 203 -53t75 -145
q0 -45 -30 -86.5t-71 -56.5q50 -9 89 -52t39 -110z" />
    <glyph glyph-name="afii10026" unicode="&#x418;" horiz-adv-x="741" 
d="M678 712v-712h-181l13 474l-243 -474h-204v712h181l-7 -474l243 474h198z" />
    <glyph glyph-name="afii10027" unicode="&#x419;" horiz-adv-x="741" 
d="M678 712v-712h-181l13 474l-243 -474h-204v712h181l-7 -474l243 474h198zM567 898q0 -75 -53 -113t-130 -38t-130 38t-53 113h86q6 -28 33 -43t64 -15t64 15t33 43h86z" />
    <glyph glyph-name="afii10028" unicode="&#x41a;" horiz-adv-x="741" 
d="M716 712l-264 -279l297 -433h-231l-192 299l-76 -79v-220h-184v712h182v-272l238 272h230z" />
    <glyph glyph-name="afii10029" unicode="&#x41b;" horiz-adv-x="741" 
d="M678 712v-712h-187v554h-158l-9 -277q-5 -145 -63.5 -218t-154.5 -73q-59 0 -98 13v149q22 -9 55 -9q24 0 39 9.5t27 47.5t14 107l12 409h523z" />
    <glyph glyph-name="afii10030" unicode="&#x41c;" horiz-adv-x="926" 
d="M65 0v712h270l130 -494l133 494h263v-712h-176l9 543l-159 -543h-143l-158 542l6 -542h-175z" />
    <glyph glyph-name="afii10031" unicode="&#x41d;" horiz-adv-x="741" 
d="M678 712v-712h-187v294h-241v-294h-187v712h187v-254h241v254h187z" />
    <glyph glyph-name="afii10032" unicode="&#x41e;" horiz-adv-x="778" 
d="M741 355q0 -161 -94.5 -266.5t-252.5 -105.5q-163 0 -260 104t-97 269q0 161 98.5 267t256.5 106q159 0 254 -101.5t95 -272.5zM551 361q0 101 -43 159t-118 58t-119 -59.5t-44 -160.5q0 -104 43.5 -163t120.5 -59q76 0 118 59t42 166z" />
    <glyph glyph-name="afii10033" unicode="&#x41f;" horiz-adv-x="741" 
d="M678 712v-712h-187v554h-241v-554h-187v712h615z" />
    <glyph glyph-name="afii10034" unicode="&#x420;" horiz-adv-x="685" 
d="M64 0v712h313q131 0 206 -57t75 -183q0 -116 -68 -175t-183 -59h-157v-238h-186zM250 382h105q29 0 47 2.5t37.5 10.5t29 26.5t9.5 48.5q0 49 -28 69.5t-80 20.5h-120v-178z" />
    <glyph glyph-name="afii10035" unicode="&#x421;" horiz-adv-x="759" 
d="M540 278h185q-1 -41 -7.5 -64.5t-25.5 -61.5q-83 -169 -294 -169q-163 0 -259.5 105.5t-96.5 269.5t100 267.5t259 103.5q125 0 218 -73t102 -195h-183q-24 112 -141 112q-76 0 -121.5 -59.5t-45.5 -159.5q0 -97 45.5 -155t121.5 -58q123 0 143 137z" />
    <glyph glyph-name="afii10036" unicode="&#x422;" horiz-adv-x="648" 
d="M629 712v-158h-211v-554h-188v554h-211v158h610z" />
    <glyph glyph-name="afii10037" unicode="&#x423;" horiz-adv-x="704" 
d="M459 189q-52 -108 -105 -154.5t-144 -46.5q-48 0 -107 16v154q39 -14 85 -14q29 0 47 14t18 35q0 22 -27 74l-229 445h211l153 -350l141 350h208z" />
    <glyph glyph-name="afii10038" unicode="&#x424;" horiz-adv-x="866" 
d="M525 73v-73h-184v73q-140 10 -224.5 86t-84.5 205q0 124 84 197.5t225 82.5v68h184v-68q141 -9 225 -82.5t84 -197.5q0 -129 -84.5 -205t-224.5 -86zM525 498v-278q56 10 87.5 48t31.5 95q0 120 -119 135zM341 498q-118 -15 -118 -135q0 -57 31.5 -95t86.5 -48v278z" />
    <glyph glyph-name="afii10039" unicode="&#x425;" horiz-adv-x="704" 
d="M247 375l-232 337h219l124 -220l121 220h209l-227 -337l252 -375h-226l-137 238l-143 -238h-215z" />
    <glyph glyph-name="afii10040" unicode="&#x426;" horiz-adv-x="769" 
d="M678 158h82v-333h-174v175h-523v712h187v-554h241v554h187v-554z" />
    <glyph glyph-name="afii10041" unicode="&#x427;" horiz-adv-x="692" 
d="M321 420q54 0 121 16v276h187v-712h-187v285q-87 -16 -150 -16q-125 0 -190 58.5t-65 190.5v194h187v-157q0 -71 20 -103t77 -32z" />
    <glyph glyph-name="afii10042" unicode="&#x428;" horiz-adv-x="1090" 
d="M63 0v712h184v-554h206v554h184v-554h206v554h184v-712h-964z" />
    <glyph glyph-name="afii10043" unicode="&#x429;" horiz-adv-x="1118" 
d="M63 0v712h184v-554h206v554h184v-554h206v554h184v-554h82v-333h-174v175h-872z" />
    <glyph glyph-name="afii10044" unicode="&#x42a;" horiz-adv-x="830" 
d="M803 240q0 -125 -71.5 -182.5t-209.5 -57.5h-313v554h-190v158h376v-238h137q128 0 199.5 -58.5t71.5 -175.5zM613 241q0 28 -9.5 46.5t-28.5 27t-38 11.5t-47 3h-95v-178h100q62 0 90 20t28 70z" />
    <glyph glyph-name="afii10045" unicode="&#x42b;" horiz-adv-x="955" 
d="M635 240q0 -125 -71.5 -182.5t-209.5 -57.5h-291v712h183v-238h118q128 0 199.5 -58.5t71.5 -175.5zM449 241q0 28 -9.5 46.5t-28.5 27t-38 11.5t-47 3h-80v-178h85q62 0 90 20t28 70zM708 712h184v-712h-184v712z" />
    <glyph glyph-name="afii10046" unicode="&#x42c;" horiz-adv-x="685" 
d="M657 240q0 -125 -71.5 -182.5t-209.5 -57.5h-313v712h186v-238h137q128 0 199.5 -58.5t71.5 -175.5zM467 241q0 28 -9.5 46.5t-28.5 27t-38 11.5t-47 3h-95v-178h100q62 0 90 20t28 70z" />
    <glyph glyph-name="afii10047" unicode="&#x42d;" horiz-adv-x="759" 
d="M725 358q0 -165 -96.5 -270t-259.5 -105q-211 0 -294 169q-28 57 -32 106h188q24 -117 139 -117q63 0 106 41.5t56 113.5h-247v144h241q-17 63 -57.5 98t-98.5 35q-107 0 -137 -95h-185q15 115 106.5 183t211.5 68q159 0 259 -103.5t100 -267.5z" />
    <glyph glyph-name="afii10048" unicode="&#x42e;" horiz-adv-x="1033" 
d="M351 299h-101v-299h-187v712h187v-259h108q26 126 106.5 201t210.5 75q156 0 238.5 -99.5t82.5 -274.5q0 -164 -82.5 -268t-236.5 -104q-143 0 -226.5 85.5t-99.5 230.5zM807 361q0 101 -35.5 159t-98.5 58t-99.5 -59t-36.5 -161q0 -105 36 -163.5t101 -58.5
q64 0 98.5 59t34.5 166z" />
    <glyph glyph-name="afii10049" unicode="&#x42f;" horiz-adv-x="741" 
d="M678 0h-185v263h-66l-188 -263h-236l221 272q-73 19 -118 75t-45 139q0 109 70 167.5t175 58.5h372v-712zM493 397v171h-136q-114 0 -114 -83q0 -52 29.5 -70t82.5 -18h138z" />
    <glyph glyph-name="afii10065" unicode="&#x430;" horiz-adv-x="593" 
d="M558 0h-172q-7 22 -8 49q-71 -65 -171 -65q-84 0 -132.5 42.5t-48.5 116.5q0 37 13 65t30 43.5t50 27.5t56 16.5t64 10.5q97 15 109 20q27 11 27 42q0 55 -79 55q-41 0 -59.5 -13t-27.5 -52h-160q16 173 249 173q125 0 190 -47q29 -21 39.5 -49t10.5 -80v-207
q0 -102 20 -148zM375 242q-12 -6 -28 -11t-25.5 -7t-31 -6.5t-27.5 -5.5q-63 -13 -63 -63q0 -29 18 -45t49 -16q45 0 76.5 26.5t31.5 74.5v53z" />
    <glyph glyph-name="afii10066" unicode="&#x431;" horiz-adv-x="611" 
d="M578 256q0 -124 -75.5 -197.5t-205.5 -73.5q-72 0 -125 28.5t-81.5 76.5t-42 101.5t-13.5 112.5q0 60 4.5 107t20.5 100.5t42.5 90.5t75 65t114.5 36q3 0 17 1.5t21.5 2.5t21.5 3t22 5t16 8.5t11 11.5h166q-6 -43 -22.5 -73.5t-36.5 -47.5t-57 -28.5t-66 -15.5t-81 -9
q-68 -6 -109.5 -46t-52.5 -109q20 45 70.5 78t116.5 33q108 0 178.5 -71.5t70.5 -189.5zM407 259q0 139 -102 139q-99 0 -99 -140q0 -72 26 -111t75 -39q48 0 74 39.5t26 111.5z" />
    <glyph glyph-name="afii10067" unicode="&#x432;" horiz-adv-x="611" 
d="M60 0v516h325q73 0 119.5 -31t46.5 -99t-67 -104q93 -30 93 -127q0 -73 -51 -116q-30 -26 -63.5 -32.5t-86.5 -6.5h-316zM224 313h91q67 0 67 50t-70 50h-88v-100zM224 107h102q36 0 56 12t20 46q0 60 -80 60h-98v-118z" />
    <glyph glyph-name="afii10068" unicode="&#x433;" horiz-adv-x="474" 
d="M228 387v-387h-170v516h403v-129h-233z" />
    <glyph glyph-name="afii10069" unicode="&#x434;" horiz-adv-x="648" 
d="M633 -142h-160v142h-309v-142h-160v271h56q23 48 41.5 130.5t18.5 158.5v98h447v-387h66v-271zM400 129v263h-118q-1 -65 -16 -138.5t-35 -124.5h169z" />
    <glyph glyph-name="afii10070" unicode="&#x435;" horiz-adv-x="611" 
d="M583 217h-384q1 -57 32.5 -88.5t85.5 -31.5q64 0 97 60h159q-25 -83 -92.5 -128t-165.5 -45q-123 0 -202.5 72.5t-79.5 195.5q0 122 77 199.5t199 77.5q127 0 200.5 -79.5t73.5 -217.5v-15zM416 314q-4 46 -31.5 73.5t-74.5 27.5q-93 0 -109 -101h215z" />
    <glyph glyph-name="afii10072" unicode="&#x436;" horiz-adv-x="885" 
d="M309 200l-117 -200h-199l212 312l-185 204h191l148 -190v190h167v-190l148 190h191l-185 -204l212 -312h-199l-117 200l-48 -52v-148h-171v148z" />
    <glyph glyph-name="afii10073" unicode="&#x437;" horiz-adv-x="556" 
d="M528 158q0 -85 -70.5 -129t-185.5 -44q-106 0 -176 42.5t-75 141.5h161q5 -73 94 -73q40 0 59 18.5t19 42.5q0 26 -18.5 43t-57.5 17h-60v96h42q85 0 85 60q0 17 -17.5 34.5t-50.5 17.5q-38 0 -58 -13.5t-25 -46.5h-156q8 166 242 166q108 0 169.5 -35.5t61.5 -110.5
q0 -33 -22 -63.5t-51 -42.5q35 -9 62.5 -40.5t27.5 -80.5z" />
    <glyph glyph-name="afii10074" unicode="&#x438;" 
d="M572 0h-165l5 322l-164 -322h-190v516h165l-5 -322l163 322h191v-516z" />
    <glyph glyph-name="afii10075" unicode="&#x439;" 
d="M479 712q0 -76 -44 -111.5t-119 -35.5t-119 35.5t-44 111.5h76q13 -58 87 -58t87 58h76zM572 0h-165l5 322l-164 -322h-190v516h165l-5 -322l163 322h191v-516z" />
    <glyph glyph-name="afii10076" unicode="&#x43a;" horiz-adv-x="593" 
d="M577 516l-187 -196l214 -320h-203l-124 201l-51 -54v-147h-170v516h168v-185l158 185h195z" />
    <glyph glyph-name="afii10077" unicode="&#x43b;" horiz-adv-x="611" 
d="M380 0v387h-107l-6 -158q-1 -30 -2 -45t-5.5 -45t-11 -47t-20 -40t-31.5 -35t-46 -21t-64 -9q-40 0 -85 14v133q15 -7 38 -7q59 0 61 88l8 301h441v-516h-170z" />
    <glyph glyph-name="afii10078" unicode="&#x43c;" horiz-adv-x="778" 
d="M389 137l103 379h229v-516h-162l5 357l-96 -357h-157l-96 357l5 -357h-162v516h229z" />
    <glyph glyph-name="afii10079" unicode="&#x43d;" 
d="M228 335h174v181h170v-516h-170v206h-174v-206h-170v516h170v-181z" />
    <glyph glyph-name="afii10080" unicode="&#x43e;" horiz-adv-x="611" 
d="M308 531q120 0 195 -75.5t75 -196.5q0 -122 -75.5 -198.5t-196.5 -76.5q-122 0 -197.5 76t-75.5 198q0 121 76.5 197t198.5 76zM304 405q-48 0 -74.5 -38.5t-26.5 -108.5q0 -72 27 -111t76 -39t75.5 39.5t26.5 111.5q0 70 -27 108t-77 38z" />
    <glyph glyph-name="afii10081" unicode="&#x43f;" 
d="M572 516v-516h-170v387h-174v-387h-170v516h514z" />
    <glyph glyph-name="afii10082" unicode="&#x440;" 
d="M219 516v-60q54 73 151 73q102 0 164 -75t62 -199q0 -122 -60 -195t-160 -73q-93 0 -150 72v-234h-169v691h162zM321 394q-47 0 -74 -37t-27 -101q0 -66 27 -102t77 -36q49 0 75.5 35t26.5 100q0 69 -27 105t-78 36z" />
    <glyph glyph-name="afii10083" unicode="&#x441;" horiz-adv-x="593" 
d="M403 203h163q-14 -104 -81.5 -160t-179.5 -56q-120 0 -195 73.5t-75 193.5q0 124 75 200t198 76q108 0 177.5 -55t76.5 -146h-164q-6 37 -29.5 57.5t-58.5 20.5q-50 0 -77.5 -40t-27.5 -112q0 -68 27 -105t77 -37q78 0 94 90z" />
    <glyph glyph-name="afii10084" unicode="&#x442;" horiz-adv-x="537" 
d="M353 387v-387h-170v387h-170v129h510v-129h-170z" />
    <glyph glyph-name="afii10085" unicode="&#x443;" horiz-adv-x="537" 
d="M372 516h173l-187 -521q-32 -90 -73.5 -131t-129.5 -41h-111v137q10 0 28 -0.5t27 -0.5q21 0 34.5 4.5t21 16.5t11 21.5t8.5 32.5l-181 482h180l100 -341z" />
    <glyph glyph-name="afii10086" unicode="&#x444;" horiz-adv-x="870" 
d="M837 266q0 -117 -53 -198t-159 -81q-28 0 -58 13.5t-47 30.5v-206h-170v206q-17 -17 -47 -30.5t-58 -13.5q-106 0 -159 81t-53 198q0 121 56.5 192t148.5 71q39 0 68 -15.5t44 -34.5v233h170v-233q15 19 44 34.5t68 15.5q92 0 148.5 -71t56.5 -192zM667 257
q0 139 -81 139q-52 0 -66 -40v-204q19 -35 62 -35q85 0 85 140zM350 152v204q-14 40 -66 40q-81 0 -81 -139q0 -140 85 -140q43 0 62 35z" />
    <glyph glyph-name="afii10087" unicode="&#x445;" horiz-adv-x="537" 
d="M174 271l-165 245h188l73 -122l73 122h180l-162 -242l184 -274h-187l-91 150l-88 -150h-186z" />
    <glyph glyph-name="afii10088" unicode="&#x446;" horiz-adv-x="640" 
d="M635 -142h-160v142h-420v516h170v-387h174v387h170v-387h66v-271z" />
    <glyph glyph-name="afii10089" unicode="&#x447;" horiz-adv-x="593" 
d="M365 0v188q-90 -18 -150 -18q-90 0 -138.5 49.5t-48.5 133.5v163h170v-135q0 -50 12.5 -65.5t51.5 -15.5q46 0 103 11v205h170v-516h-170z" />
    <glyph glyph-name="afii10090" unicode="&#x448;" horiz-adv-x="895" 
d="M58 0v516h167v-387h139v387h167v-387h139v387h167v-516h-779z" />
    <glyph glyph-name="afii10091" unicode="&#x449;" horiz-adv-x="905" 
d="M55 0v516h167v-387h139v387h167v-387h139v387h167v-387h66v-271h-160v142h-685z" />
    <glyph glyph-name="afii10092" unicode="&#x44a;" horiz-adv-x="667" 
d="M151 387h-146v129h314v-168h124q97 0 150.5 -44t53.5 -129q0 -88 -54.5 -131.5t-155.5 -43.5h-286v387zM402 230h-83v-109h84q71 0 71 54q0 55 -72 55z" />
    <glyph glyph-name="afii10093" unicode="&#x44b;" horiz-adv-x="813" 
d="M589 0v516h167v-516h-167zM319 0h-262v516h166v-168h102q97 0 151.5 -44t54.5 -129q0 -87 -55.5 -131t-156.5 -44zM286 230h-63v-109h64q71 0 71 54q0 55 -72 55z" />
    <glyph glyph-name="afii10094" unicode="&#x44c;" horiz-adv-x="574" 
d="M344 0h-286v516h168v-168h124q97 0 150.5 -44t53.5 -129q0 -87 -54.5 -131t-155.5 -44zM309 230h-83v-109h84q71 0 71 54q0 55 -72 55z" />
    <glyph glyph-name="afii10095" unicode="&#x44d;" horiz-adv-x="593" 
d="M558 254q0 -120 -75 -193.5t-195 -73.5q-109 0 -175 52t-84 149h164q19 -75 91 -75q86 0 102 104h-154v97h151q-22 93 -100 93q-68 0 -86 -67h-165q11 87 79.5 138.5t173.5 51.5q123 0 198 -76t75 -200z" />
    <glyph glyph-name="afii10096" unicode="&#x44e;" horiz-adv-x="872" 
d="M577 531q117 0 189.5 -75.5t72.5 -196.5q0 -122 -72.5 -198.5t-190.5 -76.5q-106 0 -177 62t-85 166h-86v-212h-170v516h170v-187h90q21 92 90.5 147t168.5 55zM574 405q-44 0 -68 -38.5t-24 -108.5q0 -72 25 -111t69 -39q41 0 66.5 40t25.5 111q0 69 -25 107.5t-69 38.5
z" />
    <glyph glyph-name="afii10097" unicode="&#x44f;" horiz-adv-x="593" 
d="M537 0h-170v183h-52l-118 -183h-203l151 202q-48 18 -77.5 58t-29.5 93q0 71 53 117t133 46h313v-516zM367 300v97h-85q-42 0 -56 -13t-14 -35q0 -24 14 -36.5t56 -12.5h85z" />
    <glyph glyph-name="afii10071" unicode="&#x451;" horiz-adv-x="611" 
d="M509 712v-124h-154v124h154zM290 712v-124h-155v124h155zM583 217h-384q1 -57 32.5 -88.5t85.5 -31.5q64 0 97 60h159q-25 -83 -92.5 -128t-165.5 -45q-123 0 -202.5 72.5t-79.5 195.5q0 122 77 199.5t199 77.5q127 0 200.5 -79.5t73.5 -217.5v-15zM416 314
q-4 46 -31.5 73.5t-74.5 27.5q-93 0 -109 -101h215z" />
    <glyph glyph-name="afii10099" unicode="&#x452;" horiz-adv-x="611" 
d="M250 -189v139q83 9 116.5 39.5t33.5 110.5v58q0 48 -15.5 69.5t-60.5 21.5q-55 0 -75.5 -34t-20.5 -97v-118h-170v435h-49v110h49v167h170v-167h253v-110h-253v-113q62 65 148 65q196 0 196 -196v-99q0 -268 -322 -281z" />
    <glyph glyph-name="afii10100" unicode="&#x453;" horiz-adv-x="474" 
d="M228 387v-387h-170v516h403v-129h-233zM413 717l-163 -144h-115l94 144h184z" />
    <glyph glyph-name="afii10101" unicode="&#x454;" horiz-adv-x="593" 
d="M564 188q-18 -97 -84 -149t-175 -52q-120 0 -195 73.5t-75 193.5q0 124 75 200t198 76q105 0 173.5 -51.5t79.5 -138.5h-165q-18 67 -86 67q-39 0 -64.5 -25t-35.5 -71h143v-94h-146q16 -104 102 -104q72 0 91 75h164z" />
    <glyph glyph-name="afii10102" unicode="&#x455;" horiz-adv-x="556" 
d="M512 365h-156q-5 33 -25 46.5t-58 13.5q-68 0 -68 -42q0 -7 2 -13t7 -10.5t9 -7t12 -5t12 -4t13 -3t12 -2.5q110 -23 156 -39q99 -35 99 -135q0 -83 -66 -130.5t-182 -47.5q-106 0 -176 42.5t-75 141.5h161q5 -73 94 -73q36 0 57 14t21 39q0 21 -17.5 32t-69.5 22
q-84 17 -135 34q-101 35 -101 132q0 78 62 119.5t178 41.5q47 0 86.5 -8.5t72.5 -26.5t53 -51.5t22 -79.5z" />
    <glyph glyph-name="afii10103" unicode="&#x456;" horiz-adv-x="296" 
d="M233 712v-128h-170v128h170zM233 516v-516h-170v516h170z" />
    <glyph glyph-name="afii10104" unicode="&#x457;" horiz-adv-x="296" 
d="M233 516v-516h-170v516h170zM340 706v-123h-154v123h154zM120 706v-123h-154v123h154z" />
    <glyph glyph-name="afii10105" unicode="&#x458;" horiz-adv-x="296" 
d="M64 516h171v-510q0 -104 -41 -143.5t-151 -39.5q-23 0 -67 2v135q12 -1 23 -1q45 0 55 14.5t10 61.5v481zM235 712v-130h-171v130h171z" />
    <glyph glyph-name="afii10106" unicode="&#x459;" horiz-adv-x="854" 
d="M624 0h-257v389h-92l-6 -163q-1 -26 -2 -39t-4 -39.5t-8 -41.5t-13.5 -37t-22 -35t-31.5 -25.5t-43.5 -18.5t-56.5 -6q-40 0 -85 14v133q23 -7 46 -7q49 0 51 88l8 297h430v-170h92q87 0 145.5 -43.5t58.5 -126.5q0 -85 -58.5 -127t-151.5 -42zM589 216h-51v-93h51
q39 0 55.5 10.5t16.5 35.5q0 26 -17.5 36.5t-54.5 10.5z" />
    <glyph glyph-name="afii10107" unicode="&#x45a;" horiz-adv-x="854" 
d="M624 0h-257v216h-139v-216h-170v516h170v-177h139v177h170v-177h93q87 0 145.5 -43t58.5 -126q0 -85 -58.5 -127.5t-151.5 -42.5zM589 216h-52v-93h52q39 0 55.5 10.5t16.5 36.5q0 46 -72 46z" />
    <glyph glyph-name="afii10108" unicode="&#x45b;" horiz-adv-x="611" 
d="M402 0v158q0 47 -16.5 68.5t-61.5 21.5q-55 0 -75.5 -34t-20.5 -96v-118h-170v435h-49v110h49v167h170v-167h253v-110h-253v-113q69 65 148 65q99 0 147.5 -52t48.5 -146v-189h-170z" />
    <glyph glyph-name="afii10109" unicode="&#x45c;" horiz-adv-x="593" 
d="M577 516l-187 -196l214 -320h-203l-124 201l-51 -54v-147h-170v516h168v-185l158 185h195zM483 717l-163 -144h-115l94 144h184z" />
    <glyph glyph-name="afii10110" unicode="&#x45e;" horiz-adv-x="537" 
d="M372 516h173l-187 -521q-32 -90 -73.5 -131t-129.5 -41h-111v137q10 0 28 -0.5t27 -0.5q21 0 34.5 4.5t21 16.5t11 21.5t8.5 32.5l-181 482h180l100 -341zM439 712q0 -76 -44 -111.5t-119 -35.5t-119 35.5t-44 111.5h76q13 -58 87 -58t87 58h76z" />
    <glyph glyph-name="afii10193" unicode="&#x45f;" 
d="M395 -142h-160v142h-177v516h170v-387h174v387h170v-516h-177v-142z" />
    <glyph glyph-name="afii10050" unicode="&#x490;" horiz-adv-x="600" 
d="M589 554h-339v-554h-187v712h352v150h174v-308z" />
    <glyph glyph-name="afii10098" unicode="&#x491;" horiz-adv-x="474" 
d="M461 387h-233v-387h-170v516h243v128h160v-257z" />
    <glyph glyph-name="endash" unicode="&#x2013;" horiz-adv-x="500" 
d="M500 343v-146h-500v146h500z" />
    <glyph glyph-name="emdash" unicode="&#x2014;" horiz-adv-x="1000" 
d="M1000 343v-146h-1000v146h1000z" />
    <glyph glyph-name="quoteleft" unicode="&#x2018;" horiz-adv-x="296" 
d="M55 365v143q0 99 43 151.5t138 61.5v-81q-74 -15 -79 -95h79v-180h-181z" />
    <glyph glyph-name="quoteright" unicode="&#x2019;" horiz-adv-x="296" 
d="M240 712v-143q0 -99 -43 -151.5t-138 -61.5v81q74 15 79 95h-79v180h181z" />
    <glyph glyph-name="quotesinglbase" unicode="&#x201a;" horiz-adv-x="296" 
d="M239 180v-143q0 -99 -43 -151.5t-138 -61.5v81q74 15 79 95h-79v180h181z" />
    <glyph glyph-name="quotedblleft" unicode="&#x201c;" horiz-adv-x="500" 
d="M442 366h-161v148q0 85 39 139.5t122 65.5v-76q-70 -16 -74 -97h74v-180zM215 366h-161v148q0 85 39 139.5t122 65.5v-76q-70 -16 -74 -97h74v-180z" />
    <glyph glyph-name="quotedblright" unicode="&#x201d;" horiz-adv-x="500" 
d="M281 712h161v-148q0 -85 -39 -139.5t-122 -65.5v76q70 16 74 97h-74v180zM54 712h161v-148q0 -85 -39 -139.5t-122 -65.5v76q70 16 74 97h-74v180z" />
    <glyph glyph-name="quotedblbase" unicode="&#x201e;" horiz-adv-x="500" 
d="M283 180h161v-148q0 -85 -39 -139.5t-122 -65.5v76q70 16 74 97h-74v180zM56 180h161v-148q0 -85 -39 -139.5t-122 -65.5v76q70 16 74 97h-74v180z" />
    <glyph glyph-name="dagger" unicode="&#x2020;" 
d="M578 522v-145h-181v-546h-165v546h-180v145h180v190h165v-190h181z" />
    <glyph glyph-name="daggerdbl" unicode="&#x2021;" 
d="M578 527v-141h-181v-227h181v-141h-181v-186h-165v186h-180v141h180v227h-180v141h180v185h165v-185h181z" />
    <glyph glyph-name="bullet" unicode="&#x2022;" horiz-adv-x="500" 
d="M250 534q74 0 126 -52t52 -126t-52 -126t-126 -52t-126 52t-52 126t52 126t126 52z" />
    <glyph glyph-name="ellipsis" unicode="&#x2026;" horiz-adv-x="1000" 
d="M85 0v153h164v-153h-164zM418 0v153h164v-153h-164zM751 0v153h164v-153h-164z" />
    <glyph glyph-name="perthousand" unicode="&#x2030;" horiz-adv-x="1167" 
d="M666 714l-424 -738h-98l425 738h97zM218 703q144 0 144 -173q0 -82 -38.5 -127t-108.5 -45t-107.5 44t-37.5 126q0 85 38.5 130t109.5 45zM215 632q-25 0 -36 -25.5t-11 -82.5q0 -95 48 -95q47 0 47 105q0 52 -11 75t-37 23zM607 331q144 0 144 -173q0 -82 -38.5 -127
t-108.5 -45t-107.5 44t-37.5 126q0 85 38.5 130t109.5 45zM604 260q-25 0 -36 -25.5t-11 -82.5q0 -95 48 -95q47 0 47 105q0 52 -11 75t-37 23zM953 331q144 0 144 -173q0 -82 -38.5 -127t-108.5 -45t-107.5 44t-37.5 126q0 85 38.5 130t109.5 45zM950 260q-25 0 -36 -25.5
t-11 -82.5q0 -95 48 -95q47 0 47 105q0 52 -11 75t-37 23z" />
    <glyph glyph-name="guilsinglleft" unicode="&#x2039;" horiz-adv-x="241" 
d="M196 467v-136l-82 -65l82 -66v-138l-158 126v154z" />
    <glyph glyph-name="guilsinglright" unicode="&#x203a;" horiz-adv-x="241" 
d="M44 469l158 -126v-156l-158 -125v134l83 68l-83 66v139z" />
    <glyph glyph-name="afii61352" unicode="&#x2116;" horiz-adv-x="1096" 
d="M863 157q-80 0 -129.5 46.5t-49.5 122.5t49.5 122.5t130.5 46.5q79 0 128 -46.5t49 -122.5t-49 -122.5t-129 -46.5zM703 0v113h331v-113h-331zM456 0l-221 381v-381h-179v693h181l219 -379v379h178v-693h-178zM862 405q-27 0 -43 -20t-16 -59q0 -79 60 -79t60 79
q0 39 -16.5 59t-44.5 20z" />
    <glyph glyph-name="trademark" unicode="&#x2122;" horiz-adv-x="1000" 
d="M188 356v278h-105v78h310v-78h-105v-278h-100zM429 356v356h150l63 -201l63 201h150v-356h-93v267l-83 -267h-74l-84 267v-267h-92z" />
    <glyph glyph-name="Delta" unicode="&#x2206;" horiz-adv-x="704" 
d="M422 702l271 -702h-682l250 702h161zM210 138h277l-144 400z" />
    <glyph glyph-name="radical" unicode="&#x221a;" horiz-adv-x="600" 
d="M602 786l-222 -1000h-134l-143 293l-56 -26l-54 114l187 86l109 -241l158 774h155z" />
    <glyph glyph-name="infinity" unicode="&#x221e;" horiz-adv-x="872" 
d="M436 355q48 63 90.5 94t106.5 31q88 0 141.5 -56.5t53.5 -149.5q0 -97 -53.5 -155t-142.5 -58q-60 0 -105 30.5t-91 86.5q-51 -65 -93.5 -90.5t-98.5 -25.5q-89 0 -144 58t-55 153q0 93 53 149.5t141 56.5q45 0 82.5 -17.5t61 -41.5t53.5 -65zM511 268q61 -78 119 -78
q34 0 54.5 21.5t20.5 58.5q0 36 -21.5 58.5t-55.5 22.5q-23 0 -48 -16t-35.5 -28t-33.5 -39zM362 268q-21 25 -34.5 38.5t-38.5 29t-48 15.5q-32 0 -52.5 -23.5t-20.5 -59.5q0 -35 21 -56t55 -21q25 0 48.5 13t36 26t33.5 38z" />
    <glyph glyph-name="approxequal" unicode="&#x2248;" horiz-adv-x="600" 
d="M484 491h96q-7 -94 -48 -150.5t-102 -56.5q-41 0 -121 26q-16 5 -41 13.5t-33.5 11t-22 6t-22 4.5t-18.5 1q-49 0 -57 -56h-94q2 47 16.5 90.5t50 78.5t85.5 35q15 0 36.5 -4t35.5 -8t39.5 -12t32.5 -10t25 -8t28.5 -9t25.5 -6t27 -3q28 0 42 12.5t19 44.5zM484 251h96
q-7 -94 -48 -150.5t-102 -56.5q-41 0 -121 26q-16 5 -41 13.5t-33.5 11t-22 6t-22 4.5t-18.5 1q-49 0 -57 -56h-94q2 47 16.5 90.5t50 78.5t85.5 35q15 0 36.5 -4t35.5 -8t39.5 -12t32.5 -10t25 -8t28.5 -9t25.5 -6t27 -3q28 0 42 12.5t19 44.5z" />
    <glyph glyph-name="notequal" unicode="&#x2260;" horiz-adv-x="600" 
d="M198 221l46 94h-214v146h286l79 160l128 -63l-47 -97h94v-146h-167l-46 -94h213v-146h-285l-80 -160l-128 63l48 97h-95v146h168z" />
    <glyph glyph-name="lessequal" unicode="&#x2264;" horiz-adv-x="600" 
d="M30 288v145l540 155v-150l-337 -77l337 -88v-150zM30 97h540v-146h-540v146z" />
    <glyph glyph-name="greaterequal" unicode="&#x2265;" horiz-adv-x="600" 
d="M570 288l-540 -165v150l337 88l-337 77v150l540 -155v-145zM570 97v-146h-540v146h540z" />
    <glyph glyph-name="hyphenminus" unicode="&#xe000;" horiz-adv-x="407" 
d="M359 344v-148h-311v148h311z" />
    <glyph glyph-name="nbspace" unicode="&#xe001;" horiz-adv-x="315" 
 />
    </font>
</defs>
</svg>
