<?xml version="1.0" standalone="no"?>
<!DOCTYPE svg PUBLIC "-//W3C//DTD SVG 1.1//EN" "http://www.w3.org/Graphics/SVG/1.1/DTD/svg11.dtd" >
<svg xmlns="http://www.w3.org/2000/svg" xmlns:xlink="http://www.w3.org/1999/xlink" version="1.1">
<metadata>
Created by FontForge 20170731 at Tue Aug 29 14:39:51 2006
 By Aleksey,,,
Copyrighted (c) 1981, 1997 by and the property of Linotype-Hell AG and/or its subsidiaries. All Rights Reserved. All Cyrillic characters designed by DoubleAlex. Helvetica is a registered Trademark of Linotype-Hell AG and/or its subsidiaries.
</metadata>
<defs>
<font id="HelveticaNeueCyr-HeavyItalic" horiz-adv-x="630" >
  <font-face 
    font-family="HelveticaNeueCyr"
    font-weight="900"
    font-style="italic"
    font-stretch="normal"
    units-per-em="1000"
    panose-1="2 0 9 3 4 0 0 9 0 4"
    ascent="800"
    descent="-200"
    x-height="516"
    cap-height="712"
    bbox="-133 -214 1163 903"
    underline-thickness="50"
    underline-position="-200"
    slope="-12"
    unicode-range="U+0020-E001"
  />
<missing-glyph horiz-adv-x="1000" 
 />
    <glyph glyph-name=".notdef" horiz-adv-x="1000" 
 />
    <glyph glyph-name=".null" horiz-adv-x="0" 
 />
    <glyph glyph-name="nonmarkingreturn" horiz-adv-x="333" 
 />
    <glyph glyph-name="space" unicode=" " horiz-adv-x="315" 
 />
    <glyph glyph-name="exclam" unicode="!" horiz-adv-x="315" 
d="M207 172l-36 -172h-175l36 172h175zM322 712l-37 -175l-112 -304h-81l16 300l37 179h177z" />
    <glyph glyph-name="quotedbl" unicode="&#x22;" horiz-adv-x="500" 
d="M196 390h-86l39 303h137zM391 390h-87l39 303h137z" />
    <glyph glyph-name="numbersign" unicode="#" 
d="M196 0h-146l38 169h-81l26 120h82l26 117h-100l26 120h100l37 167h144l-37 -167h87l37 167h145l-37 -167h82l-26 -120h-82l-26 -117h101l-26 -120h-101l-37 -169h-146l37 169h-86zM346 289l25 117h-86l-25 -117h86z" />
    <glyph glyph-name="dollar" unicode="$" 
d="M428 787l-18 -82q201 -20 201 -188q0 -12 -1 -22h-158q1 6 1 13q0 67 -68 75l-34 -156q45 -10 79.5 -23t69 -34.5t53.5 -56.5t19 -80q0 -115 -84 -180.5t-203 -65.5q-14 0 -27 1l-19 -88h-49l19 89q-97 5 -160 59.5t-63 151.5q0 13 1 26h171q0 -4 -0.5 -8.5t-0.5 -6.5
q0 -79 79 -95l39 181q-48 13 -78.5 25t-63 33.5t-48.5 54t-16 77.5q0 108 81.5 164t196.5 56h14l17 80h50zM304 440l32 148h-8q-43 0 -69 -22t-26 -58q0 -20 12.5 -34.5t23 -19t35.5 -14.5zM321 282l-36 -170q4 -1 9 -1q46 0 76 26.5t30 66.5q0 30 -18 47.5t-61 30.5z" />
    <glyph glyph-name="percent" unicode="%" horiz-adv-x="981" 
d="M786 714l-499 -738h-105l499 738h105zM428 552q0 -94 -54.5 -163.5t-146.5 -69.5q-72 0 -113.5 42t-41.5 115q0 94 52.5 160t145.5 66q72 0 115 -38.5t43 -111.5zM267 622q-34 0 -51 -34q-11 -21 -21 -64.5t-10 -68.5q0 -56 45 -56q34 0 51 34q13 25 22.5 67t9.5 70
q0 23 -12 37.5t-34 14.5zM904 218q0 -94 -54.5 -163.5t-146.5 -69.5q-72 0 -113.5 42t-41.5 115q0 94 52.5 160t145.5 66q72 0 115 -38.5t43 -111.5zM743 288q-34 0 -51 -34q-11 -21 -21 -64.5t-10 -68.5q0 -56 45 -56q34 0 51 34q13 25 22.5 67t9.5 70q0 23 -12 37.5
t-34 14.5z" />
    <glyph glyph-name="ampersand" unicode="&#x26;" horiz-adv-x="704" 
d="M662 344q-23 -110 -117 -201l93 -143h-185l-27 46q-77 -62 -180 -62q-98 0 -166 56t-68 153q0 150 190 222q-41 67 -41 123q0 79 58 130.5t147 51.5q88 0 142.5 -46.5t54.5 -120.5q0 -61 -38 -107.5t-119 -85.5l62 -97q19 20 45 81h149zM342 461q87 43 87 95
q0 22 -16.5 37t-41.5 15q-28 0 -46 -17.5t-18 -45.5q0 -29 35 -84zM274 302q-101 -47 -101 -106q0 -32 22 -52.5t56 -20.5q52 0 101 46z" />
    <glyph glyph-name="quotesingle" unicode="'" horiz-adv-x="296" 
d="M199 390h-86l39 303h137z" />
    <glyph glyph-name="parenleft" unicode="(" horiz-adv-x="315" 
d="M382 719q-210 -279 -210 -624q0 -146 31 -270h-135q-54 139 -54 308q0 318 219 586h149z" />
    <glyph glyph-name="parenright" unicode=")" horiz-adv-x="315" 
d="M222 719q53 -136 53 -306q0 -317 -218 -588h-149q102 132 156 296t54 334q0 125 -31 264h135z" />
    <glyph glyph-name="asterisk" unicode="*" horiz-adv-x="444" 
d="M339 713l-23 -137l126 27l18 -92l-125 -21l60 -108l-83 -47l-59 113l-90 -102l-69 65l96 97l-115 54l40 84l114 -59l16 127z" />
    <glyph glyph-name="plus" unicode="+" horiz-adv-x="600" 
d="M210 0v197h-196v146h196v197h148v-197h196v-146h-196v-197h-148z" />
    <glyph glyph-name="comma" unicode="," horiz-adv-x="315" 
d="M213 176l-31 -149q-22 -103 -71 -152.5t-151 -50.5l17 82q47 7 67.5 27t29.5 67h-78l37 176h180z" />
    <glyph glyph-name="hyphen" unicode="-" horiz-adv-x="407" 
d="M354 342l-31 -145h-306l31 145h306z" />
    <glyph glyph-name="period" unicode="." horiz-adv-x="315" 
d="M213 176l-37 -176h-181l37 176h181z" />
    <glyph glyph-name="slash" unicode="/" horiz-adv-x="407" 
d="M483 729l-407 -747h-156l409 747h154z" />
    <glyph glyph-name="zero" unicode="0" 
d="M605 448q0 -80 -20.5 -158.5t-60 -146.5t-107 -110.5t-151.5 -42.5q-114 0 -178 70.5t-64 186.5q0 63 12.5 125.5t39.5 122t66 105t96.5 73t125.5 27.5q115 0 178 -67.5t63 -184.5zM353 569q-45 0 -80 -36.5t-52.5 -91.5t-26 -106.5t-8.5 -95.5q0 -117 95 -117
q44 0 78 37t52 93t26.5 108.5t8.5 95.5q0 113 -93 113z" />
    <glyph glyph-name="one" unicode="1" 
d="M523 695l-147 -695h-179l95 447q-22 0 -66.5 -2t-66.5 -2h-35l28 125q90 0 142 26.5t89 100.5h140z" />
    <glyph glyph-name="two" unicode="2" 
d="M559 141l-33 -141h-555q5 64 27.5 113.5t72 89.5t82 59.5t104.5 56.5q13 7 19 10q4 2 26.5 13t31 16.5t28.5 17t29.5 21t21.5 23t17 28.5t5 31q0 38 -24.5 60t-67.5 22q-105 0 -121 -124h-160q11 123 89 193.5t205 70.5q116 0 184 -56t68 -150q0 -50 -19.5 -92t-58 -75.5
t-71 -54t-84.5 -47.5q-138 -74 -166 -93q51 6 122 6z" />
    <glyph glyph-name="three" unicode="3" 
d="M170 250q-1 -11 -1 -21q0 -49 27.5 -75.5t79.5 -26.5q51 0 84 29t33 75q0 77 -108 77q-5 0 -13.5 -0.5t-17.5 -0.5l22 113h58q49 0 78 21.5t29 58.5q0 33 -24.5 51.5t-66.5 18.5q-97 0 -117 -101h-158q18 116 93 175t197 59q109 0 173.5 -48t64.5 -129q0 -62 -36 -102
t-97 -57q97 -29 97 -137q0 -77 -45.5 -134t-111.5 -83t-142 -26q-119 0 -190 59.5t-71 160.5q0 23 3 43h160z" />
    <glyph glyph-name="four" unicode="4" 
d="M604 290l-29 -136h-92l-33 -154h-169l33 154h-320l34 151l400 391h168l-84 -406h92zM346 290l54 240q-19 -28 -82 -91l-98 -101q-17 -17 -56 -50q26 2 56 2h126z" />
    <glyph glyph-name="five" unicode="5" 
d="M611 693l-29 -144h-304l-39 -118q53 40 128 40q94 0 151.5 -55.5t57.5 -147.5q0 -126 -90 -203t-219 -77q-109 0 -184.5 52t-75.5 156v15h164q1 -41 29.5 -64.5t77.5 -23.5q56 0 92.5 35.5t36.5 89.5q0 48 -29.5 76.5t-78.5 28.5q-65 0 -103 -51l-152 1l126 390h441z" />
    <glyph glyph-name="six" unicode="6" 
d="M620 513h-163q-9 67 -84 67q-109 0 -161 -182q64 67 154 67q95 0 151.5 -55.5t56.5 -147.5q0 -118 -80.5 -195.5t-202.5 -77.5t-190 74t-68 207q0 81 22.5 157t64.5 138.5t111 100t154 37.5q106 0 170 -52t65 -138zM312 350q-51 0 -84 -34.5t-33 -88.5q0 -47 28 -76.5
t74 -29.5q50 0 83 36.5t33 92.5q0 47 -27 73.5t-74 26.5z" />
    <glyph glyph-name="seven" unicode="7" 
d="M631 693l-29 -138q-120 -103 -209 -252t-123 -303h-189q29 140 125.5 296t210.5 248q-3 0 -11.5 -0.5t-30.5 -1t-59 -0.5h-231l32 151h514z" />
    <glyph glyph-name="eight" unicode="8" 
d="M469 366q54 -16 83 -54.5t29 -94.5q0 -78 -46.5 -131.5t-111 -75t-139.5 -21.5q-52 0 -98.5 10t-89 31.5t-68 63t-25.5 97.5q0 72 48.5 121.5t127.5 59.5q-88 40 -88 131q0 100 79.5 150.5t184.5 50.5q118 0 184.5 -47.5t66.5 -130.5q0 -62 -37 -105.5t-100 -54.5z
M349 585q-51 0 -80.5 -24t-29.5 -66q0 -38 27.5 -58.5t76.5 -20.5q52 0 81.5 24t29.5 66q0 79 -105 79zM300 311q-61 0 -95.5 -28.5t-34.5 -78.5q0 -44 31 -68t86 -24q59 0 93.5 29.5t34.5 79.5q0 90 -115 90z" />
    <glyph glyph-name="nine" unicode="9" 
d="M10 179h156q9 -70 90 -70q31 0 56 12t39 25.5t27.5 44t18 46t14.5 52.5q-59 -63 -153 -63t-149.5 56t-55.5 150q0 118 82 194.5t207 76.5q124 0 188 -74t64 -198q0 -66 -12 -128.5t-39.5 -120t-67 -100.5t-98.5 -68.5t-131 -25.5q-99 0 -167.5 48.5t-68.5 142.5zM335 570
q-52 0 -87 -36.5t-35 -89.5q0 -46 27 -74t72 -28q53 0 87 35t34 90q0 44 -27 73.5t-71 29.5z" />
    <glyph glyph-name="colon" unicode=":" horiz-adv-x="315" 
d="M213 176l-37 -176h-181l37 176h181zM282 506l-37 -176h-181l37 176h181z" />
    <glyph glyph-name="semicolon" unicode=";" horiz-adv-x="315" 
d="M213 176l-31 -149q-22 -103 -71 -152.5t-151 -50.5l17 82q47 7 67.5 27t29.5 67h-78l37 176h180zM282 506l-37 -176h-181l37 176h181z" />
    <glyph glyph-name="less" unicode="&#x3c;" horiz-adv-x="600" 
d="M2 195v151l540 211v-156l-369 -131l369 -131v-156z" />
    <glyph glyph-name="equal" unicode="=" horiz-adv-x="600" 
d="M14 317v146h540v-146h-540zM14 77v146h540v-146h-540z" />
    <glyph glyph-name="greater" unicode="&#x3e;" horiz-adv-x="600" 
d="M577 195l-540 -212v156l370 131l-370 131v156l540 -211v-151z" />
    <glyph glyph-name="question" unicode="?" horiz-adv-x="574" 
d="M325 172l-36 -172h-176l36 172h176zM329 233h-157q8 69 35.5 114t86.5 74q4 2 19.5 9t22 10.5t19 11t19 14t14 16t10.5 20t3 23.5q0 28 -19.5 44.5t-52.5 16.5q-82 0 -97 -102h-172q12 112 87.5 177.5t191.5 65.5q112 0 177 -49.5t65 -134.5q0 -34 -10 -62.5t-22.5 -46.5
t-39 -37.5t-44 -29.5t-53.5 -28q-46 -23 -58.5 -39.5t-24.5 -66.5z" />
    <glyph glyph-name="at" unicode="@" horiz-adv-x="800" 
d="M695 142l37 -49q-81 -57 -149.5 -84t-156.5 -27q-165 0 -279 101.5t-114 264.5q0 161 116.5 271t287.5 110q92 0 169 -34t125.5 -104t48.5 -164q0 -60 -25 -118.5t-75.5 -99.5t-112.5 -41q-78 0 -91 81q-47 -84 -133 -84q-62 0 -100 43t-38 114q0 97 61 169t143 72
q75 0 103 -60l12 42h110l-68 -232q-5 -15 -5 -31q0 -38 35 -38q43 0 77 58.5t34 132.5q0 104 -74 168t-195 64q-144 0 -238.5 -91.5t-94.5 -230.5q0 -138 93.5 -219.5t233.5 -81.5q139 0 263 98zM480 441q0 19 -12 31t-31 12q-43 0 -73 -63.5t-30 -110.5q0 -66 46 -66
q38 0 63 61q37 96 37 136z" />
    <glyph glyph-name="A" unicode="A" horiz-adv-x="704" 
d="M528 712l116 -712h-186l-18 130h-249l-73 -130h-196l419 712h187zM396 523q-25 -61 -85 -168l-50 -91h164l-12 93q-15 121 -17 166z" />
    <glyph glyph-name="B" unicode="B" horiz-adv-x="722" 
d="M143 712h310q40 0 70.5 -3t65 -13t56.5 -27.5t37 -48.5t15 -73q0 -64 -36 -109.5t-96 -56.5q101 -34 101 -145q0 -102 -73 -170q-33 -31 -79.5 -46.5t-79 -17.5t-92.5 -2h-351zM294 570l-29 -139h138q107 0 107 81q0 21 -9 34t-28.5 17.5t-31 5.5t-35.5 1h-112zM239 310
l-35 -165h135q29 0 50.5 3t45 11.5t36 28t12.5 49.5q0 16 -5 28t-10.5 19.5t-19 13t-20 8t-26 3.5t-24 1h-25.5h-114z" />
    <glyph glyph-name="C" unicode="C" horiz-adv-x="741" 
d="M692 263q-27 -134 -118 -207t-229 -73q-146 0 -227.5 83t-81.5 234q0 184 105 306t282 122q134 0 213.5 -69.5t79.5 -186.5v-16h-180q-3 121 -120 121q-65 0 -111 -46t-64.5 -106t-18.5 -123q0 -81 35.5 -125.5t100.5 -44.5q56 0 94 33.5t54 97.5h186z" />
    <glyph glyph-name="D" unicode="D" horiz-adv-x="759" 
d="M143 712h190q166 0 227 -20q77 -26 122 -99.5t45 -173.5q0 -82 -26.5 -159t-74.5 -132q-67 -78 -145 -103t-198 -25h-291zM295 557l-85 -402h81q63 0 95.5 7.5t60.5 29.5q41 31 66.5 90t25.5 122q0 88 -42.5 120.5t-133.5 32.5h-68z" />
    <glyph glyph-name="E" unicode="E" horiz-adv-x="685" 
d="M709 712l-31 -150h-381l-26 -123h353l-30 -144h-353l-30 -140h389l-33 -155h-574l151 712h565z" />
    <glyph glyph-name="F" unicode="F" horiz-adv-x="611" 
d="M670 712l-32 -155h-343l-30 -138h298l-31 -145h-298l-58 -274h-187l152 712h529z" />
    <glyph glyph-name="G" unicode="G" horiz-adv-x="778" 
d="M733 388l-82 -388h-119l4 71q-72 -87 -204 -87q-137 0 -213 83.5t-76 223.5q0 122 47 220t140 157t217 59q79 0 143.5 -25.5t106.5 -83.5t42 -139v-9h-179q-9 106 -122 106q-71 0 -119.5 -45t-68 -106.5t-19.5 -131.5q0 -80 37 -122.5t107 -42.5q65 0 104 31.5t60 94.5
h-132l29 134h297z" />
    <glyph glyph-name="H" unicode="H" horiz-adv-x="741" 
d="M759 712l-151 -712h-187l62 294h-247l-63 -294h-187l151 712h187l-55 -259h248l55 259h187z" />
    <glyph glyph-name="I" unicode="I" horiz-adv-x="315" 
d="M328 712l-151 -712h-187l151 712h187z" />
    <glyph glyph-name="J" unicode="J" horiz-adv-x="593" 
d="M606 712l-105 -501q-8 -38 -19 -68t-31.5 -61t-49 -52t-73 -34t-101.5 -13q-107 0 -166 48t-59 134q0 47 15 117h170q-15 -70 -15 -92q0 -29 16.5 -44.5t47.5 -15.5q19 0 33 7.5t22 15.5t14.5 26.5t9 28t6.5 31.5l99 473h186z" />
    <glyph glyph-name="K" unicode="K" horiz-adv-x="741" 
d="M808 712l-342 -293l212 -419h-211l-147 298l-95 -81l-46 -217h-186l151 712h186l-63 -277l295 277h246z" />
    <glyph glyph-name="L" unicode="L" horiz-adv-x="593" 
d="M334 712l-118 -555h333l-34 -157h-520l152 712h187z" />
    <glyph glyph-name="M" unicode="M" horiz-adv-x="926" 
d="M938 712l-151 -712h-176l68 310q30 138 64 258q-62 -146 -113 -244l-169 -324h-143l-33 329q-10 102 -12 236q-13 -112 -44 -263l-62 -302h-176l151 712h260l23 -277q11 -147 5 -230q24 109 119 284l121 223h268z" />
    <glyph glyph-name="N" unicode="N" horiz-adv-x="741" 
d="M758 712l-151 -712h-182l-126 331q-34 91 -44 137q-7 -63 -28 -166l-63 -302h-181l152 712h187l123 -328q25 -66 45 -137q17 119 30 184l58 281h180z" />
    <glyph glyph-name="O" unicode="O" horiz-adv-x="778" 
d="M750 424q0 -122 -46 -221.5t-138 -160t-215 -60.5q-150 0 -233 83.5t-83 235.5q0 184 109 305.5t290 121.5q144 0 230 -80t86 -224zM425 578q-52 0 -92.5 -26.5t-64 -69.5t-35.5 -91t-12 -97q0 -77 37.5 -119.5t104.5 -42.5q64 0 111 49t67 112t20 125q0 72 -33 116
t-103 44z" />
    <glyph glyph-name="P" unicode="P" horiz-adv-x="685" 
d="M138 712h303q246 0 246 -210q0 -68 -30.5 -127.5t-82.5 -92.5q-69 -44 -211 -44h-140l-50 -238h-186zM291 561l-37 -178h125q127 0 127 101q0 47 -29 62t-82 15h-104z" />
    <glyph glyph-name="Q" unicode="Q" horiz-adv-x="778" 
d="M686 -6l-99 -75l-81 98q-67 -36 -159 -36q-33 0 -68 6q-117 20 -181.5 103t-64.5 205q0 191 111.5 312.5t286.5 121.5q149 0 234 -82.5t85 -227.5q0 -202 -140 -333zM446 286l56 -69q61 88 61 199q0 77 -36.5 119.5t-102.5 42.5q-68 0 -116 -46.5t-67.5 -108.5
t-19.5 -128q0 -76 36.5 -119.5t98.5 -43.5q25 0 50 8l-57 70z" />
    <glyph glyph-name="R" unicode="R" horiz-adv-x="722" 
d="M139 712h312q81 0 129 -11q132 -28 132 -172q0 -80 -45 -134t-119 -64q45 -21 60 -51.5t15 -87.5q0 -1 -1.5 -39t-1.5 -85q0 -44 9 -68h-184q-6 21 -6 49q0 20 2.5 59.5t2.5 58.5q0 58 -24 77.5t-85 19.5h-105l-56 -264h-185zM294 568l-36 -172h123q31 0 53 3t44 12.5
t34 30.5t12 53q0 43 -29.5 58t-79.5 15h-121z" />
    <glyph glyph-name="S" unicode="S" horiz-adv-x="667" 
d="M644 498h-175q-6 49 -30 69.5t-77 20.5q-47 0 -75.5 -19.5t-28.5 -51.5q0 -8 2 -15.5t7 -13.5t9 -10.5t12.5 -9t13.5 -7t16 -5.5t14.5 -4.5t15 -4.5t13.5 -3q38 -10 60.5 -17t52 -18t47 -21.5t36.5 -26.5t28.5 -34.5t16 -43.5t6.5 -56q0 -50 -18 -91.5t-48 -68.5t-71 -46
t-85 -27t-91 -8q-84 0 -148 22.5t-105 78t-41 138.5q0 7 1 13h183v-1q0 -111 126 -111q53 0 85 22t32 59q0 18 -7.5 31t-26.5 23t-36 15.5t-51 15.5t-56 18q-83 28 -127 69t-44 119q0 103 78.5 165.5t207.5 62.5q136 0 207 -56.5t71 -163.5v-8z" />
    <glyph glyph-name="T" unicode="T" 
d="M691 712l-33 -155h-206l-119 -557h-187l119 557h-213l33 155h606z" />
    <glyph glyph-name="U" unicode="U" horiz-adv-x="741" 
d="M761 712l-99 -473q-53 -251 -333 -251q-142 0 -218.5 55.5t-76.5 157.5q0 35 15 107l85 404h187l-89 -419q-7 -37 -7 -58q0 -46 29 -71t83 -25q33 0 59 11t40.5 25.5t25.5 39.5t15 41t9 41q1 7 2 10l88 405h185z" />
    <glyph glyph-name="V" unicode="V" 
d="M713 712l-368 -712h-212l-72 712h186l20 -197q19 -181 11 -334q35 117 108 264l131 267h196z" />
    <glyph glyph-name="W" unicode="W" horiz-adv-x="944" 
d="M1020 712l-339 -712h-183l-9 239q-7 143 6 246q-40 -129 -100 -267l-95 -218h-187l-51 712h186l5 -380q1 -50 -7 -141q35 121 105 282l104 239h169l7 -236q4 -180 -5 -287q29 110 108 298l95 225h191z" />
    <glyph glyph-name="X" unicode="X" horiz-adv-x="704" 
d="M763 712l-296 -339l175 -373h-209l-49 113q-12 28 -47 124q-31 -49 -75 -103l-109 -134h-231l332 376l-166 336h205l40 -99q24 -60 44 -120q46 64 88 121l75 98h223z" />
    <glyph glyph-name="Y" unicode="Y" horiz-adv-x="648" 
d="M748 712l-350 -449l-57 -263h-183l56 269l-165 443h192l59 -197q16 -51 26 -99q22 42 62 99l137 197h223z" />
    <glyph glyph-name="Z" unicode="Z" horiz-adv-x="667" 
d="M704 712l-31 -148l-362 -336q-53 -49 -99 -81q94 6 141 6l252 2l-33 -155h-619l33 155l347 323q37 35 102 83l-347 -3l33 154h583z" />
    <glyph glyph-name="bracketleft" unicode="[" horiz-adv-x="370" 
d="M444 714l-28 -130h-138l-131 -619h138l-28 -131h-294l187 880h294z" />
    <glyph glyph-name="backslash" unicode="\" horiz-adv-x="407" 
d="M483 -18h-156l-407 747h154z" />
    <glyph glyph-name="bracketright" unicode="]" horiz-adv-x="370" 
d="M379 714l-187 -879h-294l28 130h138l132 619h-138l28 130h293z" />
    <glyph glyph-name="asciicircum" unicode="^" horiz-adv-x="600" 
d="M51 274l183 438h132l183 -438h-156l-94 262l-92 -262h-156z" />
    <glyph glyph-name="underscore" unicode="_" horiz-adv-x="500" 
d="M0 -125v50h500v-50h-500z" />
    <glyph glyph-name="grave" unicode="`" horiz-adv-x="259" 
d="M233 579h-114l-162 144h178z" />
    <glyph glyph-name="a" unicode="a" horiz-adv-x="593" 
d="M60 359q13 67 52.5 106.5t88 52t118.5 12.5q111 0 170 -34t59 -98q0 -28 -13 -92l-38 -177q-13 -61 -13 -87q0 -21 6 -42h-170l-2 18q0 5 1 14.5t1 17.5q-58 -67 -164 -67q-77 0 -121.5 39t-44.5 107q0 41 16 72t40.5 49.5t61.5 31t69 17.5t73 8q83 6 102 14q34 13 34 53
q0 49 -75 49q-38 0 -59 -14t-33 -50h-159zM359 240q-22 -16 -83 -23q-68 -7 -89 -21q-26 -17 -26 -51q0 -27 18 -42t50 -15q91 0 115 94z" />
    <glyph glyph-name="b" unicode="b" 
d="M304 712l-53 -250q59 67 150 67q85 0 134.5 -57t49.5 -154q0 -62 -17 -120.5t-49.5 -106.5t-85 -77t-117.5 -29q-118 0 -155 89l-15 -74h-163l152 712h169zM328 403q-45 0 -76 -33t-43 -74.5t-12 -85.5t23 -69.5t64 -25.5q63 0 97 60.5t34 129.5q0 98 -87 98z" />
    <glyph glyph-name="c" unicode="c" horiz-adv-x="574" 
d="M527 197q-53 -211 -270 -211q-115 0 -181.5 57.5t-66.5 174.5q0 137 83.5 223.5t218.5 86.5q108 0 172.5 -52t64.5 -139v-8h-164v3l1 2q0 35 -21 55t-58 20q-46 0 -77 -35t-42 -77.5t-11 -87.5q0 -107 88 -107q69 0 98 95h165z" />
    <glyph glyph-name="d" unicode="d" 
d="M652 712l-151 -712h-162l13 63q-52 -77 -150 -77q-93 0 -142.5 58.5t-49.5 156.5q0 82 28.5 155t90.5 123.5t147 50.5q108 0 152 -81q4 25 9 47l46 216h169zM311 400q-65 0 -97.5 -57.5t-32.5 -128.5q0 -98 86 -98q44 0 74.5 33t42.5 74t12 84t-21.5 68t-63.5 25z" />
    <glyph glyph-name="e" unicode="e" horiz-adv-x="611" 
d="M534 154q-26 -87 -98.5 -128.5t-170.5 -41.5q-115 0 -181 60.5t-66 174.5q0 136 84.5 223t215.5 87q115 0 180 -61.5t65 -169.5q0 -36 -8 -81h-376q-1 -8 -1 -18q0 -49 25.5 -75t72.5 -26q65 0 92 56h166zM194 312h210v12q0 43 -24 67t-65 24q-44 0 -76 -27t-45 -76z" />
    <glyph glyph-name="f" unicode="f" horiz-adv-x="370" 
d="M394 516l-23 -109h-100l-87 -407h-169l86 407h-83l24 109h82l13 52q19 75 60.5 110.5t142.5 35.5q16 0 101 -5l-25 -118q-16 2 -47 2q-37 0 -52.5 -13t-22.5 -48l-3 -16h103z" />
    <glyph glyph-name="g" unicode="g" horiz-adv-x="611" 
d="M597 516l-103 -481q-25 -116 -87.5 -167.5t-196.5 -51.5q-113 0 -174.5 41.5t-61.5 117.5q0 6 1 10h169q4 -64 78 -64q53 0 73.5 28.5t34.5 87.5l12 50q-51 -63 -140 -63q-88 0 -140.5 56t-52.5 150q0 77 28.5 144t87.5 111.5t138 44.5q56 0 93 -20t62 -66l16 72h163z
M300 407q-60 0 -93 -52.5t-33 -116.5q0 -46 23.5 -72t64.5 -26q53 0 89 49.5t36 123.5q0 42 -22.5 68t-64.5 26z" />
    <glyph glyph-name="h" unicode="h" 
d="M307 712l-57 -264q72 80 173 80q69 0 111 -37.5t42 -98.5q0 -34 -10 -81l-66 -311h-170l61 283q7 35 7 52q0 62 -66 62q-50 0 -79.5 -39t-41.5 -95l-55 -263h-168l152 712h167z" />
    <glyph glyph-name="i" unicode="i" horiz-adv-x="296" 
d="M269 516l-109 -516h-170l109 516h170zM311 713l-28 -129h-170l28 129h170z" />
    <glyph glyph-name="j" unicode="j" horiz-adv-x="296" 
d="M269 516l-109 -512q-23 -108 -68.5 -145.5t-149.5 -36.5q-38 0 -75 4l29 133q30 -2 33 -2q31 0 44 14.5t22 57.5l104 487h170zM311 713l-28 -131h-171l29 131h170z" />
    <glyph glyph-name="k" unicode="k" horiz-adv-x="574" 
d="M302 712l-79 -369l179 173h206l-230 -203l130 -313h-185l-77 209l-61 -51l-34 -158h-168l152 712h167z" />
    <glyph glyph-name="l" unicode="l" horiz-adv-x="296" 
d="M312 712l-151 -712h-170l151 712h170z" />
    <glyph glyph-name="m" unicode="m" horiz-adv-x="944" 
d="M263 516l-16 -70q78 85 175 85q111 0 132 -89q72 88 177 88q70 0 112.5 -38t42.5 -100q0 -44 -13 -104l-62 -288h-171l60 282q9 43 9 60q0 25 -16.5 39.5t-43.5 14.5q-80 0 -104 -112l-60 -284h-170l61 285q9 45 9 59q0 25 -15.5 40t-41.5 15q-83 0 -108 -120l-60 -279
h-170l110 516h163z" />
    <glyph glyph-name="n" unicode="n" 
d="M260 516l-16 -70q72 84 177 84q70 0 112.5 -37t42.5 -98q0 -37 -10 -84l-66 -311h-172l64 298q4 17 4 39q0 29 -16.5 44.5t-47.5 15.5q-44 0 -74 -30.5t-42 -87.5l-59 -279h-170l110 516h163z" />
    <glyph glyph-name="o" unicode="o" horiz-adv-x="611" 
d="M563 303q0 -139 -82.5 -229t-221.5 -90q-113 0 -180.5 58t-67.5 172q0 137 84 226.5t222 89.5q112 0 179 -58t67 -169zM308 410q-43 0 -74 -36.5t-43 -80.5t-12 -85q0 -50 22.5 -76.5t65.5 -26.5q44 0 74.5 37t42 81t11.5 86q0 45 -21.5 73t-65.5 28z" />
    <glyph glyph-name="p" unicode="p" 
d="M256 516l-12 -59q62 72 155 72q86 0 136.5 -58.5t50.5 -158.5q0 -82 -28 -154.5t-89.5 -122t-145.5 -49.5q-112 0 -155 81l-51 -242h-170l146 691h163zM326 397q-43 0 -73 -32t-41.5 -72t-11.5 -82q0 -47 23.5 -72.5t66.5 -25.5q61 0 92.5 59.5t31.5 124.5q0 45 -22 72.5
t-66 27.5z" />
    <glyph glyph-name="q" unicode="q" 
d="M610 516l-146 -691h-169l49 231q-51 -70 -150 -70q-88 0 -136 55.5t-48 156.5q0 61 17 119t49 106t84.5 77t117.5 29q113 0 155 -86l15 73h162zM309 397q-44 0 -74.5 -31.5t-43 -72t-12.5 -83.5q0 -99 86 -99q43 0 74 32t43.5 73t12.5 83q0 44 -22 71t-64 27z" />
    <glyph glyph-name="r" unicode="r" horiz-adv-x="426" 
d="M462 524l-32 -153q-37 10 -65 10q-71 0 -107 -39.5t-52 -112.5l-49 -229h-169l110 516h161l-20 -88q36 51 74.5 76.5t95.5 25.5q24 0 53 -6z" />
    <glyph glyph-name="s" unicode="s" horiz-adv-x="537" 
d="M504 365h-154v6q0 58 -73 58q-31 0 -50 -13t-19 -35q0 -24 18.5 -33t82.5 -24q23 -6 37 -9q62 -15 96 -48t34 -96q0 -66 -41 -109.5t-95.5 -59.5t-118.5 -16q-110 0 -171.5 44.5t-61.5 123.5v15h157v-5q0 -68 88 -68q35 0 56 14t21 37q0 27 -24.5 38.5t-97.5 28.5
q-5 1 -8.5 2t-7.5 2q-132 31 -132 138q0 81 65 127.5t178 46.5q108 0 165 -39t57 -113q0 -1 -0.5 -5.5t-0.5 -7.5z" />
    <glyph glyph-name="t" unicode="t" horiz-adv-x="389" 
d="M406 516l-25 -109h-104l-44 -198q-9 -38 -9 -53q0 -20 11.5 -28t39.5 -8q2 0 56 3l-27 -123q-44 -7 -102 -7q-157 0 -157 110q0 24 16 97l45 207h-87l25 109h86l36 157h169l-34 -157h105z" />
    <glyph glyph-name="u" unicode="u" 
d="M603 516l-109 -516h-163l15 72q-60 -87 -171 -87q-70 0 -113 38t-43 100q0 33 10 81l66 312h171l-60 -285q-8 -42 -8 -59q0 -25 17.5 -39t46.5 -14q42 0 71 31t42 89l59 277h169z" />
    <glyph glyph-name="v" unicode="v" horiz-adv-x="537" 
d="M569 516l-280 -516h-197l-66 516h173l15 -169q10 -108 6 -195q32 88 65 155l106 209h178z" />
    <glyph glyph-name="w" unicode="w" horiz-adv-x="833" 
d="M875 516l-269 -516h-177l-11 219q-4 77 -1 132q-29 -79 -52 -129l-99 -222h-176l-55 516h168l11 -170q7 -116 4 -188q22 73 63 165l86 193h165l10 -181q5 -77 2 -173q19 63 78 192l73 162h180z" />
    <glyph glyph-name="x" unicode="x" horiz-adv-x="537" 
d="M557 516l-211 -249l131 -267h-174l-39 86q-14 31 -26 67q-28 -40 -37 -52l-80 -101h-190l236 276l-118 240h175l33 -81q8 -17 17 -51q18 30 33 50l62 82h188z" />
    <glyph glyph-name="y" unicode="y" horiz-adv-x="537" 
d="M566 516l-275 -515q-29 -54 -47.5 -82t-47.5 -53.5t-65 -34.5t-90 -9q-48 0 -94 6l27 134q20 -3 68 -3q56 0 73 52l-96 505h172l23 -172q14 -96 18 -193q16 69 71 184l85 181h178z" />
    <glyph glyph-name="z" unicode="z" horiz-adv-x="537" 
d="M534 516l-27 -127l-218 -194q-53 -45 -96 -74q58 4 129 4h152l-26 -125h-491l27 126l218 192q40 35 98 74q-17 0 -35 -0.5t-55 -0.5h-154l28 125h450z" />
    <glyph glyph-name="braceleft" unicode="{" horiz-adv-x="370" 
d="M-28 221l19 99q61 10 94 41t44 89l17 88q33 174 293 174l-18 -93q-59 -4 -90.5 -33.5t-42.5 -91.5l-8 -44q-30 -168 -203 -179q68 -8 104 -35.5t36 -85.5q0 -25 -10 -72.5t-10 -69.5q0 -80 89 -83l-18 -93q-108 5 -166 40t-58 118q0 28 10.5 80t10.5 67q0 35 -22.5 55
t-70.5 29z" />
    <glyph glyph-name="bar" unicode="|" horiz-adv-x="222" 
d="M38 -214v1000h147v-1000h-147z" />
    <glyph glyph-name="braceright" unicode="}" horiz-adv-x="370" 
d="M380 323l-19 -99q-60 -10 -93 -41t-44 -89l-17 -88q-33 -174 -294 -174l18 93q59 4 89.5 33t43.5 92l9 44q18 87 68.5 130.5t134.5 48.5q-69 8 -105 35.5t-36 85.5q0 25 10 72.5t10 69.5q0 80 -89 83l18 93q109 -5 166.5 -40t57.5 -118q0 -28 -10.5 -80t-10.5 -67
q0 -35 22.5 -55t70.5 -29z" />
    <glyph glyph-name="asciitilde" unicode="~" horiz-adv-x="600" 
d="M473 372h96q-7 -94 -48 -150.5t-102 -56.5q-41 0 -121 26q-16 5 -41 13.5t-33.5 11t-22 6t-22 4.5t-18.5 1q-49 0 -57 -56h-94q2 47 16.5 90.5t50 78.5t85.5 35q15 0 36.5 -4t35.5 -8t39.5 -12t32.5 -10t25 -8t28.5 -9t25.5 -6t27 -3q28 0 42 12.5t19 44.5z" />
    <glyph glyph-name="sterling" unicode="&#xa3;" 
d="M435 401l-21 -102h-105q-1 -60 -17 -90t-64 -74q36 12 71 12q19 0 59 -8q43 -10 65 -10q8 0 15 1t15.5 3t13.5 3.5t14 6t12.5 6t14.5 7l13 6.5l45 -122q-74 -51 -159 -51q-46 0 -130 20q-58 13 -97 13q-57 0 -113 -35l-49 106q62 39 93.5 77.5t31.5 99.5q0 15 -1 29h-101
l21 102h66q-22 54 -22 100q0 96 76 158t193 62q115 0 179 -57t64 -159q0 -12 -1 -23h-164q1 9 1 17q0 40 -21 62t-60 22q-40 0 -64.5 -25.5t-24.5 -66.5q0 -39 17 -90h134z" />
    <glyph glyph-name="currency" unicode="&#xa4;" 
d="M52 170l67 67q-28 50 -28 109q0 52 28 109l-67 67l87 88l68 -67q65 28 107 28q56 0 110 -29l67 67l87 -87l-66 -66q29 -65 29 -111q0 -54 -29 -109l67 -66l-87 -88l-67 67q-56 -28 -109 -28q-52 0 -110 28l-67 -67zM315 441q-39 0 -67 -27.5t-28 -67.5t28 -67.5t67 -27.5
q40 0 68 27.5t28 67.5t-28 67.5t-68 27.5z" />
    <glyph glyph-name="brokenbar" unicode="&#xa6;" horiz-adv-x="222" 
d="M38 -89v250h147v-250h-147zM38 411v250h147v-250h-147z" />
    <glyph glyph-name="section" unicode="&#xa7;" 
d="M589 530h-148q0 2 0.5 5.5t0.5 4.5q0 30 -18 47t-50 17q-30 0 -48.5 -15.5t-18.5 -41.5q0 -19 15.5 -37t33 -29.5t51.5 -30.5q5 -3 8.5 -5t7.5 -4q85 -49 124 -88t39 -98t-37.5 -103t-98.5 -57q31 -37 31 -90q0 -84 -66 -137t-170 -53q-102 0 -163 51t-61 136v19h150v-7
q0 -28 15 -47q22 -27 65 -27q33 0 52.5 16.5t19.5 44.5q0 10 -3 19t-11.5 18.5t-15 16t-22.5 17t-24 15t-29.5 17t-29.5 17.5q-36 21 -56.5 35t-46.5 38t-38.5 52.5t-12.5 62.5q0 62 39 104t102 49q-30 39 -30 82q0 88 68.5 134t165.5 46q98 0 154.5 -46t56.5 -126
q0 -11 -1 -22zM346 180q18 -12 38 -12q22 0 38.5 17t16.5 39q0 17 -10.5 32.5t-19.5 23t-29 21.5l-94 67q-22 15 -47 15t-42 -16t-17 -40q0 -33 40 -60z" />
    <glyph glyph-name="copyright" unicode="&#xa9;" horiz-adv-x="800" 
d="M400 729q154 1 264 -108.5t110 -264.5q0 -154 -110 -264t-264 -110t-263.5 109.5t-110.5 264.5q0 154 109.5 263.5t264.5 109.5zM400 663q-128 0 -217.5 -89.5t-89.5 -217.5t89.5 -217.5t217.5 -89.5t217.5 89.5t89.5 217.5q0 127 -90 217t-217 90zM589 297
q-8 -72 -58 -116.5t-123 -44.5q-90 0 -149.5 62.5t-59.5 157.5q0 98 56.5 160t144.5 62q78 0 131 -45.5t58 -117.5h-98q-13 74 -85 74q-43 0 -67 -34.5t-24 -96.5q0 -63 25.5 -98t70.5 -35q37 0 55 18t25 54h98z" />
    <glyph glyph-name="guillemotleft" unicode="&#xab;" horiz-adv-x="444" 
d="M226 466l-29 -137l-103 -71l72 -78l-25 -122l-130 140l31 147zM423 466l-28 -136l-104 -72l72 -78l-25 -122l-131 140l32 147z" />
    <glyph glyph-name="logicalnot" unicode="&#xac;" horiz-adv-x="600" 
d="M22 317v146h540v-386h-151v240h-389z" />
    <glyph glyph-name="registered" unicode="&#xae;" horiz-adv-x="400" 
d="M241 729q74 0 126 -52t52 -125q0 -74 -52 -126t-126 -52t-126 52t-52 126q0 73 52 124.5t126 52.5zM241 692q-58 0 -99 -41t-41 -99q0 -59 41 -100t99 -41t99 41.5t41 99.5t-41 99t-99 41zM163 652h74q41 0 65.5 -12t24.5 -49q0 -36 -35 -48q33 -15 33 -57v-12
q0 -10 4 -22h-56q-4 9 -4 26q-1 28 -7.5 35t-29.5 7h-10v-68h-59v200zM222 563h12q35 0 35 23q0 22 -35 22h-12v-45z" />
    <glyph glyph-name="degree" unicode="&#xb0;" horiz-adv-x="400" 
d="M240 702q71 0 122 -50.5t51 -121.5q0 -72 -51 -122.5t-122 -50.5t-122 50.5t-51 122.5q0 71 51 121.5t122 50.5zM240 590q-25 0 -42.5 -17.5t-17.5 -42.5t17.5 -43t42.5 -18t42.5 18t17.5 43t-17.5 42.5t-42.5 17.5z" />
    <glyph glyph-name="plusminus" unicode="&#xb1;" horiz-adv-x="600" 
d="M206 139v145h-196v146h196v154h148v-154h196v-146h-196v-145h-148zM10 -43v146h540v-146h-540z" />
    <glyph glyph-name="mu" unicode="&#xb5;" 
d="M97 516h170l-64 -300q-4 -19 -4 -39q0 -27 18 -43t48 -16q28 0 49 11t33 33t18.5 41t12.5 48l57 265h169l-109 -516h-164l12 53q-49 -67 -113 -67q-47 0 -71 36l-40 -197h-170z" />
    <glyph glyph-name="paragraph" unicode="&#xb6;" horiz-adv-x="620" 
d="M660 604h-50l-169 -792h-130l168 792h-92l-168 -792h-130l90 424q-154 20 -154 174q0 136 94 219t229 83h335z" />
    <glyph glyph-name="periodcentered" unicode="&#xb7;" horiz-adv-x="315" 
d="M254 373l-37 -176h-181l37 176h181z" />
    <glyph glyph-name="guillemotright" unicode="&#xbb;" horiz-adv-x="444" 
d="M75 467l130 -140l-32 -147l-183 -121l28 136l103 72l-72 78zM271 467l131 -140l-32 -147l-183 -121l28 137l103 71l-72 79z" />
    <glyph glyph-name="divide" unicode="&#xf7;" horiz-adv-x="600" 
d="M20 197v146h540v-146h-540zM208 2v153h164v-153h-164zM208 386v153h164v-153h-164z" />
    <glyph glyph-name="florin" unicode="&#x192;" 
d="M520 420l-29 -106h-98l-80 -289q-31 -110 -84.5 -154t-164.5 -44q-32 0 -64 5l35 125q24 -2 25 -2q19 0 33 6t21 12t15 23.5t9.5 24t8.5 30.5l71 263h-95l29 106h95l36 129q24 86 73 129t151 43q21 0 91 -7l-32 -121q-22 3 -41 3q-20 0 -33.5 -5.5t-22.5 -20.5t-12 -23.5
t-10 -33.5l-26 -93h99z" />
    <glyph glyph-name="afii10023" unicode="&#x401;" horiz-adv-x="685" 
d="M709 712l-31 -150h-381l-26 -123h353l-30 -144h-353l-30 -140h389l-33 -155h-574l151 712h565zM638 898l-27 -130h-154l27 130h154zM425 898l-27 -130h-154l27 130h154z" />
    <glyph glyph-name="afii10051" unicode="&#x402;" horiz-adv-x="814" 
d="M411 -144q-55 0 -99 16l32 146q24 -11 67 -11q72 0 112.5 62t40.5 148q0 89 -85 89q-50 0 -86 -35.5t-51 -103.5l-36 -167h-187l118 557h-184l33 155h605l-33 -155h-234l-33 -156q67 51 154 51q100 0 154.5 -65.5t54.5 -165.5q0 -93 -38.5 -174.5t-118.5 -136t-186 -54.5
z" />
    <glyph glyph-name="afii10052" unicode="&#x403;" horiz-adv-x="600" 
d="M536 903l-163 -144h-115l94 144h184zM-10 0l151 712h526l-33 -155h-339l-118 -557h-187z" />
    <glyph glyph-name="afii10053" unicode="&#x404;" horiz-adv-x="741" 
d="M478 440l-31 -144h-223q1 -78 37 -121t99 -43q113 0 147 126h186q-28 -131 -118.5 -203t-227.5 -72q-146 0 -227.5 83t-81.5 234q0 184 105 306t282 122q132 0 211.5 -67.5t81.5 -182.5h-182q-11 99 -118 99q-116 0 -169 -137h229z" />
    <glyph glyph-name="afii10054" unicode="&#x405;" horiz-adv-x="667" 
d="M644 498h-175q-6 49 -30 69.5t-77 20.5q-47 0 -75.5 -19.5t-28.5 -51.5q0 -8 2 -15.5t7 -13.5t9 -10.5t12.5 -9t13.5 -7t16 -5.5t14.5 -4.5t15 -4.5t13.5 -3q38 -10 60.5 -17t52 -18t47 -21.5t36.5 -26.5t28.5 -34.5t16 -43.5t6.5 -56q0 -50 -18 -91.5t-48 -68.5t-71 -46
t-85 -27t-91 -8q-84 0 -148 22.5t-105 78t-41 138.5q0 7 1 13h183v-1q0 -111 126 -111q53 0 85 22t32 59q0 18 -7.5 31t-26.5 23t-36 15.5t-51 15.5t-56 18q-83 28 -127 69t-44 119q0 103 78.5 165.5t207.5 62.5q136 0 207 -56.5t71 -163.5v-8z" />
    <glyph glyph-name="afii10055" unicode="&#x406;" horiz-adv-x="315" 
d="M328 712l-151 -712h-187l151 712h187z" />
    <glyph glyph-name="afii10056" unicode="&#x407;" horiz-adv-x="315" 
d="M328 712l-151 -712h-187l151 712h187zM448 898l-27 -130h-154l27 130h154zM235 898l-27 -130h-154l27 130h154z" />
    <glyph glyph-name="afii10057" unicode="&#x408;" horiz-adv-x="593" 
d="M606 712l-105 -501q-8 -38 -19 -68t-31.5 -61t-49 -52t-73 -34t-101.5 -13q-107 0 -166 48t-59 134q0 47 15 117h170q-15 -70 -15 -92q0 -29 16.5 -44.5t47.5 -15.5q19 0 33 7.5t22 15.5t14.5 26.5t9 28t6.5 31.5l99 473h186z" />
    <glyph glyph-name="afii10058" unicode="&#x409;" horiz-adv-x="1082" 
d="M515 557h-139l-68 -280q-37 -154 -101.5 -222.5t-178.5 -68.5q-61 0 -95 12l31 146q20 -8 53 -8q40 0 66 32.5t50 134.5l99 409h504l-54 -254h119q238 0 238 -202q0 -67 -29.5 -124t-79.5 -89q-67 -43 -207 -43h-325zM854 246q0 43 -26.5 57t-78.5 14h-97l-35 -166h116
q121 0 121 95z" />
    <glyph glyph-name="afii10059" unicode="&#x40a;" horiz-adv-x="1082" 
d="M1034 256q0 -67 -29.5 -124t-79.5 -89q-67 -43 -207 -43h-324l66 317h-219l-68 -317h-187l151 712h187l-54 -254h220l54 254h187l-54 -254h119q238 0 238 -202zM850 246q0 43 -27 57t-78 14h-98l-35 -166h117q121 0 121 95z" />
    <glyph glyph-name="afii10060" unicode="&#x40b;" horiz-adv-x="814" 
d="M501 0l45 210q5 27 5 42q0 31 -18.5 43.5t-60.5 12.5q-38 0 -105 -13l-63 -295h-187l119 558h-184l32 154h605l-32 -154h-234l-25 -115q87 16 132 16q209 0 209 -180q0 -43 -10 -90l-41 -189h-187z" />
    <glyph glyph-name="afii10061" unicode="&#x40c;" horiz-adv-x="741" 
d="M808 712l-342 -293l212 -419h-211l-147 298l-95 -81l-46 -217h-186l151 712h186l-63 -277l295 277h246zM603 903l-163 -144h-115l94 144h184z" />
    <glyph glyph-name="afii10062" unicode="&#x40e;" horiz-adv-x="704" 
d="M625 898q-12 -78 -67.5 -114.5t-133.5 -36.5q-69 0 -118.5 29.5t-49.5 86.5q0 15 3 35h86q1 -28 24.5 -43t60.5 -15q39 0 71 15t38 43h86zM437 177q-65 -103 -131 -146t-162 -43q-56 0 -102 19l33 151q41 -15 82 -15q31 0 53.5 17.5t22.5 48.5q0 19 -13 58l-142 445h200
l86 -376l195 376h212z" />
    <glyph glyph-name="afii10145" unicode="&#x40f;" horiz-adv-x="741" 
d="M381 0l-37 -175h-174l37 175h-221l151 712h187l-117 -557h243l117 557h187l-151 -712h-222z" />
    <glyph glyph-name="afii10017" unicode="&#x410;" horiz-adv-x="704" 
d="M528 712l116 -712h-186l-18 130h-249l-73 -130h-196l419 712h187zM396 523q-25 -61 -85 -168l-50 -91h164l-12 93q-15 121 -17 166z" />
    <glyph glyph-name="afii10018" unicode="&#x411;" horiz-adv-x="722" 
d="M691 712l-32 -151h-369l-18 -87h148q246 0 246 -210q0 -68 -30.5 -127.5t-82.5 -92.5q-71 -44 -211 -44h-355l151 712h553zM481 250q0 47 -29 62t-82 15h-129l-38 -178h151q127 0 127 101z" />
    <glyph glyph-name="afii10019" unicode="&#x412;" horiz-adv-x="722" 
d="M143 712h310q40 0 70.5 -3t65 -13t56.5 -27.5t37 -48.5t15 -73q0 -64 -36 -109.5t-96 -56.5q101 -34 101 -145q0 -102 -73 -170q-33 -31 -79.5 -46.5t-79 -17.5t-92.5 -2h-351zM294 570l-29 -139h138q107 0 107 81q0 21 -9 34t-28.5 17.5t-31 5.5t-35.5 1h-112zM239 310
l-35 -165h135q29 0 50.5 3t45 11.5t36 28t12.5 49.5q0 16 -5 28t-10.5 19.5t-19 13t-20 8t-26 3.5t-24 1h-25.5h-114z" />
    <glyph glyph-name="afii10020" unicode="&#x413;" horiz-adv-x="600" 
d="M-10 0l151 712h526l-33 -155h-339l-118 -557h-187z" />
    <glyph glyph-name="afii10021" unicode="&#x414;" horiz-adv-x="778" 
d="M660 -175h-174l37 175h-414l-37 -175h-174l71 330h74q58 69 114.5 211.5t82.5 262.5l18 83h509l-118 -557h82zM467 155l85 405h-152l-7 -32q-21 -97 -64 -201.5t-89 -171.5h227z" />
    <glyph glyph-name="afii10022" unicode="&#x415;" horiz-adv-x="685" 
d="M709 712l-31 -150h-381l-26 -123h353l-30 -144h-353l-30 -140h389l-33 -155h-574l151 712h565z" />
    <glyph glyph-name="afii10024" unicode="&#x416;" horiz-adv-x="1100" 
d="M388 296l-238 -296h-227l371 434l-189 278h203l174 -280l60 280h179l-58 -279l274 279h226l-324 -301l193 -411h-201l-127 285l-90 -83l-42 -202h-183l48 224z" />
    <glyph glyph-name="afii10025" unicode="&#x417;" horiz-adv-x="667" 
d="M651 544q0 -55 -40.5 -101.5t-95.5 -58.5q42 -8 73.5 -47.5t31.5 -94.5q0 -123 -93.5 -189.5t-227.5 -66.5q-135 0 -216.5 58t-81.5 181q0 7 1 13h183v-1q0 -111 127 -111q55 0 89.5 27t34.5 75q0 36 -27 55.5t-74 19.5h-66l20 130q21 -2 54 -2q48 0 85 22.5t37 67.5
q0 27 -26.5 46.5t-64.5 19.5q-56 0 -91 -22.5t-39 -64.5h-177q15 112 101.5 170.5t223.5 58.5q118 0 188.5 -48.5t70.5 -136.5z" />
    <glyph glyph-name="afii10026" unicode="&#x418;" horiz-adv-x="741" 
d="M753 712l-151 -712h-181l114 474l-329 -474h-219l151 712h181l-107 -474l328 474h213z" />
    <glyph glyph-name="afii10027" unicode="&#x419;" horiz-adv-x="741" 
d="M645 898q-12 -78 -67.5 -114.5t-133.5 -36.5q-69 0 -118.5 29.5t-49.5 86.5q0 15 3 35h86q1 -28 24.5 -43t60.5 -15q39 0 71 15t38 43h86zM753 712l-151 -712h-181l114 474l-329 -474h-219l151 712h181l-107 -474l328 474h213z" />
    <glyph glyph-name="afii10028" unicode="&#x41a;" horiz-adv-x="741" 
d="M808 712l-342 -293l212 -419h-211l-147 298l-95 -81l-46 -217h-186l151 712h186l-63 -277l295 277h246z" />
    <glyph glyph-name="afii10029" unicode="&#x41b;" horiz-adv-x="741" 
d="M755 712l-152 -712h-187l118 557h-158l-68 -280q-37 -154 -101.5 -222.5t-178.5 -68.5q-61 0 -95 12l31 146q20 -8 53 -8q39 0 65.5 34t50.5 133l99 409h523z" />
    <glyph glyph-name="afii10030" unicode="&#x41c;" horiz-adv-x="926" 
d="M938 712l-151 -712h-176l68 310q30 138 64 258q-62 -146 -113 -244l-169 -324h-143l-33 329q-10 102 -12 236q-13 -112 -44 -263l-62 -302h-176l151 712h260l23 -277q11 -147 5 -230q24 109 119 284l121 223h268z" />
    <glyph glyph-name="afii10031" unicode="&#x41d;" horiz-adv-x="741" 
d="M759 712l-151 -712h-187l62 294h-247l-63 -294h-187l151 712h187l-55 -259h248l55 259h187z" />
    <glyph glyph-name="afii10032" unicode="&#x41e;" horiz-adv-x="778" 
d="M750 424q0 -122 -46 -221.5t-138 -160t-215 -60.5q-150 0 -233 83.5t-83 235.5q0 184 109 305.5t290 121.5q144 0 230 -80t86 -224zM425 578q-52 0 -92.5 -26.5t-64 -69.5t-35.5 -91t-12 -97q0 -77 37.5 -119.5t104.5 -42.5q64 0 111 49t67 112t20 125q0 72 -33 116
t-103 44z" />
    <glyph glyph-name="afii10033" unicode="&#x41f;" horiz-adv-x="741" 
d="M755 712l-151 -712h-187l118 557h-244l-118 -557h-187l151 712h618z" />
    <glyph glyph-name="afii10034" unicode="&#x420;" horiz-adv-x="685" 
d="M138 712h303q246 0 246 -210q0 -68 -30.5 -127.5t-82.5 -92.5q-69 -44 -211 -44h-140l-50 -238h-186zM291 561l-37 -178h125q127 0 127 101q0 47 -29 62t-82 15h-104z" />
    <glyph glyph-name="afii10035" unicode="&#x421;" horiz-adv-x="741" 
d="M692 263q-27 -134 -118 -207t-229 -73q-146 0 -227.5 83t-81.5 234q0 184 105 306t282 122q134 0 213.5 -69.5t79.5 -186.5v-16h-180q-3 121 -120 121q-65 0 -111 -46t-64.5 -106t-18.5 -123q0 -81 35.5 -125.5t100.5 -44.5q56 0 94 33.5t54 97.5h186z" />
    <glyph glyph-name="afii10036" unicode="&#x422;" 
d="M691 712l-33 -155h-206l-119 -557h-187l119 557h-213l33 155h606z" />
    <glyph glyph-name="afii10037" unicode="&#x423;" horiz-adv-x="704" 
d="M437 177q-65 -103 -131 -146t-162 -43q-56 0 -102 19l33 151q41 -15 82 -15q31 0 53.5 17.5t22.5 48.5q0 19 -13 58l-142 445h200l86 -376l195 376h212z" />
    <glyph glyph-name="afii10038" unicode="&#x424;" horiz-adv-x="866" 
d="M840 398q0 -142 -107.5 -231t-266.5 -94l-15 -73h-184l15 73q-117 12 -185 78t-68 168q0 142 107.5 231t266.5 94l15 68h184l-15 -68q117 -12 185 -78t68 -168zM649 393q0 85 -93 105l-59 -278q72 10 112 58t40 115zM372 497q-72 -10 -111.5 -57.5t-39.5 -115.5
q0 -85 92 -105z" />
    <glyph glyph-name="afii10039" unicode="&#x425;" horiz-adv-x="704" 
d="M763 712l-296 -339l175 -373h-209l-49 113q-12 28 -47 124q-31 -49 -75 -103l-109 -134h-231l332 376l-166 336h205l40 -99q24 -60 44 -120q46 64 88 121l75 98h223z" />
    <glyph glyph-name="afii10040" unicode="&#x426;" horiz-adv-x="769" 
d="M636 155h82l-71 -330h-174l37 175h-523l151 712h187l-117 -557h241l117 557h187z" />
    <glyph glyph-name="afii10041" unicode="&#x427;" horiz-adv-x="692" 
d="M335 420q55 0 124 16l59 276h187l-151 -712h-187l61 290q-89 -16 -153 -16q-100 0 -153.5 47.5t-53.5 140.5q0 41 10 87l35 163h187l-33 -157q-9 -47 -9 -67q0 -34 18 -51t59 -17z" />
    <glyph glyph-name="afii10042" unicode="&#x428;" horiz-adv-x="1090" 
d="M-13 0l151 712h184l-117 -557h206l117 557h184l-117 -557h206l117 557h184l-151 -712h-964z" />
    <glyph glyph-name="afii10043" unicode="&#x429;" horiz-adv-x="1118" 
d="M-13 0l151 712h184l-117 -557h206l117 557h184l-117 -557h206l117 557h184l-117 -557h82l-71 -330h-174l37 175h-872z" />
    <glyph glyph-name="afii10044" unicode="&#x42a;" horiz-adv-x="830" 
d="M786 264q0 -68 -30.5 -127.5t-82.5 -92.5q-69 -44 -211 -44h-331l119 557h-198l33 155h384l-51 -238h122q246 0 246 -210zM602 250q0 47 -29 62t-82 15h-104l-38 -178h126q127 0 127 101z" />
    <glyph glyph-name="afii10045" unicode="&#x42b;" horiz-adv-x="955" 
d="M614 264q0 -68 -30.5 -127.5t-82.5 -92.5q-71 -44 -211 -44h-303l151 712h186l-50 -238h94q246 0 246 -210zM431 250q0 47 -29 62t-82 15h-77l-38 -178h99q127 0 127 101zM782 712h185l-151 -712h-185z" />
    <glyph glyph-name="afii10046" unicode="&#x42c;" horiz-adv-x="685" 
d="M643 264q0 -68 -30.5 -127.5t-82.5 -92.5q-71 -44 -211 -44h-332l151 712h186l-50 -238h123q246 0 246 -210zM458 250q0 47 -29 62t-82 15h-104l-38 -178h126q127 0 127 101z" />
    <glyph glyph-name="afii10047" unicode="&#x42d;" horiz-adv-x="741" 
d="M716 411q0 -184 -105 -306t-282 -122q-134 0 -213.5 69.5t-79.5 186.5v16h180q3 -121 120 -121q67 0 111.5 45.5t65.5 116.5h-242l31 144h227q-7 67 -42 103t-93 36q-101 0 -139 -101h-188q33 120 121.5 185t218.5 65q146 0 227.5 -83t81.5 -234z" />
    <glyph glyph-name="afii10048" unicode="&#x42e;" horiz-adv-x="1033" 
d="M711 578q-48 0 -86 -29t-58.5 -75t-31 -94.5t-10.5 -95.5q0 -71 31.5 -111.5t86.5 -40.5q36 0 67 20.5t51.5 52.5t34.5 72.5t20.5 78.5t6.5 72q0 67 -28 108.5t-84 41.5zM342 298h-105l-64 -298h-187l151 712h187l-56 -263h93q36 127 127.5 203t223.5 76
q142 0 217.5 -78.5t75.5 -225.5q0 -187 -101 -314.5t-269 -127.5q-144 0 -218 81.5t-75 234.5z" />
    <glyph glyph-name="afii10049" unicode="&#x42f;" horiz-adv-x="741" 
d="M753 712l-151 -712h-185l56 263h-66l-235 -263h-236l277 275q-131 37 -131 186q0 65 28.5 121t78.5 88q66 42 204 42h360zM536 568h-147q-124 0 -124 -98q0 -45 27.5 -59.5t80.5 -14.5h127z" />
    <glyph glyph-name="afii10065" unicode="&#x430;" horiz-adv-x="593" 
d="M60 359q13 67 52.5 106.5t88 52t118.5 12.5q111 0 170 -34t59 -98q0 -28 -13 -92l-38 -177q-13 -61 -13 -87q0 -21 6 -42h-170l-2 18q0 5 1 14.5t1 17.5q-58 -67 -164 -67q-77 0 -121.5 39t-44.5 107q0 41 16 72t40.5 49.5t61.5 31t69 17.5t73 8q83 6 102 14q34 13 34 53
q0 49 -75 49q-38 0 -59 -14t-33 -50h-159zM359 240q-22 -16 -83 -23q-68 -7 -89 -21q-26 -17 -26 -51q0 -27 18 -42t50 -15q91 0 115 94z" />
    <glyph glyph-name="afii10066" unicode="&#x431;" horiz-adv-x="611" 
d="M351 518q85 0 147.5 -58t62.5 -163q0 -137 -80.5 -225t-217.5 -88q-111 0 -175 61t-64 182q0 82 18 159.5t55 147t102 116.5t150 56q5 1 29 2.5t36.5 3.5t28 8t22.5 15h166q-13 -43 -34.5 -73.5t-44.5 -47.5t-61.5 -28.5t-68 -15.5t-82.5 -9q-141 -12 -187 -155
q66 112 198 112zM189 202q0 -97 82 -97q41 0 70 35t40.5 78t11.5 85q0 43 -20.5 69t-60.5 26q-58 0 -90.5 -64t-32.5 -132z" />
    <glyph glyph-name="afii10067" unicode="&#x432;" horiz-adv-x="611" 
d="M566 396q0 -46 -26.5 -79t-69.5 -41q73 -24 73 -105q0 -75 -53 -123q-24 -22 -57.5 -33.5t-57 -13t-67.5 -1.5h-320l110 516h291q37 0 64.5 -4t55 -16t42.5 -37t15 -63zM399 371q0 13 -6 21.5t-20 11t-20.5 3t-22.5 0.5h-90l-18 -89h106q71 0 71 53zM372 172
q0 21 -14.5 31.5t-27.5 11.5t-37 1h-7h-87l-22 -102h99q45 0 70.5 11.5t25.5 46.5z" />
    <glyph glyph-name="afii10068" unicode="&#x433;" horiz-adv-x="474" 
d="M243 391l-83 -391h-170l110 516h403l-27 -125h-233z" />
    <glyph glyph-name="afii10069" unicode="&#x434;" horiz-adv-x="648" 
d="M537 -142h-160l30 142h-309l-30 -142h-160l57 267h56q33 48 69.5 132.5t52.5 160.5l21 98h447l-83 -391h66zM361 125l57 267h-118q-30 -133 -108 -267h169z" />
    <glyph glyph-name="afii10070" unicode="&#x435;" horiz-adv-x="611" 
d="M534 154q-26 -87 -98.5 -128.5t-170.5 -41.5q-115 0 -181 60.5t-66 174.5q0 136 84.5 223t215.5 87q115 0 180 -61.5t65 -169.5q0 -36 -8 -81h-376q-1 -8 -1 -18q0 -49 25.5 -75t72.5 -26q65 0 92 56h166zM194 312h210v12q0 43 -24 67t-65 24q-44 0 -76 -27t-45 -76z" />
    <glyph glyph-name="afii10072" unicode="&#x436;" horiz-adv-x="856" 
d="M65 516h178l106 -189l40 189h164l-38 -179l172 179h208l-235 -208l135 -308h-175l-83 199l-63 -55l-30 -144h-165l31 147l-36 54l-159 -201h-202l278 327z" />
    <glyph glyph-name="afii10073" unicode="&#x437;" horiz-adv-x="556" 
d="M512 397q0 -39 -27.5 -71t-67.5 -47q31 -8 54.5 -34t23.5 -67q0 -53 -23 -92t-63 -60t-86.5 -30.5t-101.5 -9.5q-110 0 -171.5 44.5t-61.5 123.5v15h157v-5q0 -68 93 -68q35 0 61 18.5t26 51.5q0 52 -68 52h-66l16 95h43q36 0 65 15.5t29 48.5q0 17 -16.5 32.5
t-47.5 15.5q-38 0 -60 -13.5t-31 -46.5h-156q31 164 265 164q214 0 214 -132z" />
    <glyph glyph-name="afii10074" unicode="&#x438;" 
d="M499 0h-165l73 322l-218 -322h-204l110 516h165l-74 -322l218 322h205z" />
    <glyph glyph-name="afii10075" unicode="&#x439;" 
d="M543 712q-17 -78 -62 -112.5t-118 -34.5q-67 0 -108.5 27t-41.5 84q0 19 4 36h76q0 -58 74 -58q73 0 100 58h76zM499 0h-165l73 322l-218 -322h-204l110 516h165l-74 -322l218 322h205z" />
    <glyph glyph-name="afii10076" unicode="&#x43a;" horiz-adv-x="574" 
d="M261 516l-39 -187l189 187h200l-226 -206l123 -310h-182l-66 195l-82 -75l-25 -120h-168l110 516h166z" />
    <glyph glyph-name="afii10077" unicode="&#x43b;" horiz-adv-x="611" 
d="M313 0l83 391h-104l-40 -158q-8 -31 -12 -45t-15 -45.5t-21 -48t-28.5 -40.5t-39 -36t-50.5 -21.5t-66 -9.5q-40 0 -82 14l28 132q14 -6 37 -6q57 0 79 88l73 301h437l-109 -516h-170z" />
    <glyph glyph-name="afii10078" unicode="&#x43c;" horiz-adv-x="778" 
d="M345 137l184 379h229l-110 -516h-162l81 357l-172 -357h-157l-20 357l-71 -357h-162l110 516h229z" />
    <glyph glyph-name="afii10079" unicode="&#x43d;" 
d="M226 333h174l39 183h170l-110 -516h-170l44 208h-174l-44 -208h-170l110 516h170z" />
    <glyph glyph-name="afii10080" unicode="&#x43e;" horiz-adv-x="611" 
d="M563 303q0 -139 -82.5 -229t-221.5 -90q-113 0 -180.5 58t-67.5 172q0 137 84 226.5t222 89.5q112 0 179 -58t67 -169zM308 410q-43 0 -74 -36.5t-43 -80.5t-12 -85q0 -50 22.5 -76.5t65.5 -26.5q44 0 74.5 37t42 81t11.5 86q0 45 -21.5 73t-65.5 28z" />
    <glyph glyph-name="afii10081" unicode="&#x43f;" 
d="M609 516l-110 -516h-170l83 391h-174l-83 -391h-170l110 516h514z" />
    <glyph glyph-name="afii10082" unicode="&#x440;" 
d="M256 516l-12 -59q62 72 155 72q86 0 136.5 -58.5t50.5 -158.5q0 -82 -28 -154.5t-89.5 -122t-145.5 -49.5q-112 0 -155 81l-51 -242h-170l146 691h163zM326 397q-43 0 -73 -32t-41.5 -72t-11.5 -82q0 -47 23.5 -72.5t66.5 -25.5q61 0 92.5 59.5t31.5 124.5q0 45 -22 72.5
t-66 27.5z" />
    <glyph glyph-name="afii10083" unicode="&#x441;" horiz-adv-x="574" 
d="M527 197q-53 -211 -270 -211q-115 0 -181.5 57.5t-66.5 174.5q0 137 83.5 223.5t218.5 86.5q108 0 172.5 -52t64.5 -139v-8h-164v3l1 2q0 35 -21 55t-58 20q-46 0 -77 -35t-42 -77.5t-11 -87.5q0 -107 88 -107q69 0 98 95h165z" />
    <glyph glyph-name="afii10084" unicode="&#x442;" horiz-adv-x="537" 
d="M362 391l-83 -391h-170l83 391h-170l26 125h510l-26 -125h-170z" />
    <glyph glyph-name="afii10085" unicode="&#x443;" horiz-adv-x="537" 
d="M566 516l-275 -515q-29 -54 -47.5 -82t-47.5 -53.5t-65 -34.5t-90 -9q-48 0 -94 6l27 134q20 -3 68 -3q56 0 73 52l-96 505h172l23 -172q14 -96 18 -193q16 69 71 184l85 181h178z" />
    <glyph glyph-name="afii10086" unicode="&#x444;" horiz-adv-x="870" 
d="M827 323q0 -87 -29.5 -162t-93 -124.5t-149.5 -49.5q-29 0 -60 15.5t-42 34.5l-45 -212h-166l45 212q-16 -19 -48 -34.5t-67 -15.5q-73 0 -119 49t-46 157q0 87 29.5 162t93 124.5t149.5 49.5q29 0 60 -15.5t42 -34.5l49 233h166l-49 -233q16 19 48 34.5t67 15.5
q73 0 119 -49t46 -157zM656 326q0 74 -62 74q-50 0 -72 -40l-46 -212q11 -35 56 -35q42 0 71.5 39t41 85.5t11.5 88.5zM357 365q-13 35 -56 35q-42 0 -71.5 -39t-41 -85.5t-11.5 -88.5q0 -74 62 -74q50 0 72 40z" />
    <glyph glyph-name="afii10087" unicode="&#x445;" horiz-adv-x="537" 
d="M557 516l-211 -249l131 -267h-174l-39 86q-14 31 -26 67q-28 -40 -37 -52l-80 -101h-190l236 276l-118 240h175l33 -81q8 -17 17 -51q18 30 33 50l62 82h188z" />
    <glyph glyph-name="afii10088" unicode="&#x446;" horiz-adv-x="640" 
d="M535 -142h-160l30 142h-420l110 516h170l-84 -391h174l84 391h170l-84 -391h66z" />
    <glyph glyph-name="afii10089" unicode="&#x447;" horiz-adv-x="593" 
d="M292 0l42 197q-95 -18 -154 -18q-74 0 -112.5 40t-38.5 106q0 25 6 53l29 138h170l-28 -137q-5 -25 -5 -38q0 -23 12 -33t39 -10q47 0 106 11l43 207h170l-109 -516h-170z" />
    <glyph glyph-name="afii10090" unicode="&#x448;" horiz-adv-x="895" 
d="M-15 0l110 516h167l-83 -387h139l83 387h167l-83 -387h139l83 387h167l-110 -516h-779z" />
    <glyph glyph-name="afii10091" unicode="&#x449;" horiz-adv-x="905" 
d="M-15 0l110 516h167l-83 -387h139l83 387h167l-83 -387h139l83 387h167l-83 -387h66l-57 -271h-160l30 142h-685z" />
    <glyph glyph-name="afii10092" unicode="&#x44a;" horiz-adv-x="667" 
d="M382 227h-81l-23 -109h92q82 0 82 63q0 28 -17 37t-53 9zM22 391l26 125h316l-37 -172h118q178 0 178 -153q0 -50 -22 -92.5t-60 -66.5q-49 -32 -153 -32h-302l83 391h-147z" />
    <glyph glyph-name="afii10093" unicode="&#x44b;" horiz-adv-x="813" 
d="M493 191q0 -50 -22 -92.5t-60 -66.5q-49 -32 -153 -32h-274l110 516h168l-37 -172h90q178 0 178 -153zM252 227h-53l-23 -109h64q82 0 82 63q0 28 -17 37t-53 9zM627 516h166l-110 -516h-166z" />
    <glyph glyph-name="afii10094" unicode="&#x44c;" horiz-adv-x="574" 
d="M527 191q0 -50 -22 -92.5t-60 -66.5q-49 -32 -153 -32h-302l110 516h168l-37 -172h118q178 0 178 -153zM286 227h-81l-23 -109h92q82 0 82 63q0 28 -17 37t-53 9z" />
    <glyph glyph-name="afii10095" unicode="&#x44d;" horiz-adv-x="574" 
d="M348 213h-153l20 94h146q-2 105 -88 105q-61 0 -90 -72h-167q59 188 264 188q115 0 181.5 -57.5t66.5 -174.5q0 -137 -83.5 -223.5t-218.5 -86.5q-108 0 -172.5 52t-64.5 139v8h163q0 -80 79 -80q85 0 117 108z" />
    <glyph glyph-name="afii10096" unicode="&#x44e;" horiz-adv-x="872" 
d="M825 303q0 -139 -80 -229t-215 -90q-109 0 -174.5 57.5t-66.5 170.5h-89l-45 -212h-170l110 516h170l-40 -188h81q30 92 103.5 147t176.5 55q109 0 174 -58t65 -169zM579 410q-40 0 -70 -36.5t-42 -80.5t-12 -85q0 -103 81 -103q59 0 91.5 67.5t32.5 136.5q0 45 -20 73
t-61 28z" />
    <glyph glyph-name="afii10097" unicode="&#x44f;" horiz-adv-x="593" 
d="M572 516l-109 -516h-169l38 182h-50l-159 -182h-205l203 203q-84 30 -84 131q0 47 21 88t56 64q47 30 148 30h310zM379 397h-95q-78 0 -78 -59q0 -25 15.5 -33.5t51.5 -8.5h85z" />
    <glyph glyph-name="afii10071" unicode="&#x451;" horiz-adv-x="611" 
d="M534 154q-26 -87 -98.5 -128.5t-170.5 -41.5q-115 0 -181 60.5t-66 174.5q0 136 84.5 223t215.5 87q115 0 180 -61.5t65 -169.5q0 -36 -8 -81h-376q-1 -8 -1 -18q0 -49 25.5 -75t72.5 -26q65 0 92 56h166zM194 312h210v12q0 43 -24 67t-65 24q-44 0 -76 -27t-45 -76z
M544 703l-27 -130h-154l27 130h154zM331 703l-27 -130h-154l27 130h154z" />
    <glyph glyph-name="afii10099" unicode="&#x452;" horiz-adv-x="611" 
d="M547 243q0 -40 -25 -151q-57 -268 -382 -281l29 139q85 9 125 39.5t57 110.5q16 80 16 94q0 61 -58 61q-99 0 -127 -128l-27 -127h-167l94 444h-49l24 110h49l33 158h167l-33 -158h253l-24 -110h-253l-27 -133q33 34 78 55t89 21q80 0 119 -38.5t39 -105.5z" />
    <glyph glyph-name="afii10100" unicode="&#x453;" horiz-adv-x="474" 
d="M243 391l-83 -391h-170l110 516h403l-27 -125h-233zM479 717l-163 -144h-115l94 144h184z" />
    <glyph glyph-name="afii10101" unicode="&#x454;" horiz-adv-x="574" 
d="M340 311l-20 -94h-142v-8q0 -107 88 -107q66 0 95 87h166q-54 -203 -268 -203q-115 0 -181.5 57.5t-66.5 174.5q0 137 83.5 223.5t218.5 86.5q107 0 171 -51t66 -137h-163q-2 32 -23 50.5t-56 18.5q-81 0 -114 -98h146z" />
    <glyph glyph-name="afii10102" unicode="&#x455;" horiz-adv-x="537" 
d="M504 365h-154v6q0 58 -73 58q-31 0 -50 -13t-19 -35q0 -24 18.5 -33t82.5 -24q23 -6 37 -9q62 -15 96 -48t34 -96q0 -66 -41 -109.5t-95.5 -59.5t-118.5 -16q-110 0 -171.5 44.5t-61.5 123.5v15h157v-5q0 -68 88 -68q35 0 56 14t21 37q0 27 -24.5 38.5t-97.5 28.5
q-5 1 -8.5 2t-7.5 2q-132 31 -132 138q0 81 65 127.5t178 46.5q108 0 165 -39t57 -113q0 -1 -0.5 -5.5t-0.5 -7.5z" />
    <glyph glyph-name="afii10103" unicode="&#x456;" horiz-adv-x="296" 
d="M269 516l-109 -516h-170l109 516h170zM311 713l-28 -129h-170l28 129h170z" />
    <glyph glyph-name="afii10104" unicode="&#x457;" horiz-adv-x="296" 
d="M403 703l-27 -130h-154l27 130h154zM190 703l-27 -130h-154l27 130h154zM269 516l-109 -516h-170l109 516h170z" />
    <glyph glyph-name="afii10105" unicode="&#x458;" horiz-adv-x="296" 
d="M269 516l-109 -512q-23 -108 -68.5 -145.5t-149.5 -36.5q-38 0 -75 4l29 133q30 -2 33 -2q31 0 44 14.5t22 57.5l104 487h170zM311 713l-28 -131h-171l29 131h170z" />
    <glyph glyph-name="afii10106" unicode="&#x459;" horiz-adv-x="854" 
d="M383 391h-92l-40 -158q-8 -31 -12 -45t-15 -45.5t-21 -48t-28.5 -40.5t-39 -36t-50.5 -21.5t-66 -9.5q-40 0 -82 14l28 133q14 -7 37 -7q57 0 79 88l72 301h426l-37 -181h86q86 0 132.5 -32t46.5 -112q0 -50 -22 -92.5t-60 -66.5q-50 -32 -153 -32h-270zM516 218l-21 -99
h54q77 0 77 58q0 24 -15 32.5t-50 8.5h-45z" />
    <glyph glyph-name="afii10107" unicode="&#x45a;" horiz-adv-x="854" 
d="M346 218h-145l-46 -218h-170l110 516h170l-39 -181h145l39 181h170l-38 -181h86q86 0 132.5 -32t46.5 -112q0 -50 -22 -92.5t-59 -66.5q-50 -32 -153 -32h-271zM517 218l-22 -99h54q77 0 77 58q0 24 -15 32.5t-50 8.5h-44z" />
    <glyph glyph-name="afii10108" unicode="&#x45b;" horiz-adv-x="611" 
d="M547 251q0 -34 -10 -81l-37 -170h-170l32 142q7 29 7 52q0 62 -66 62q-50 0 -79.5 -39t-41.5 -95l-26 -122h-168l92 435h-49l24 110h49l35 167h167l-35 -167h253l-24 -110h-253l-26 -128q72 80 173 80q69 0 111 -37.5t42 -98.5z" />
    <glyph glyph-name="afii10109" unicode="&#x45c;" horiz-adv-x="574" 
d="M502 717l-163 -144h-115l94 144h184zM261 516l-39 -187l189 187h200l-226 -206l123 -310h-182l-66 195l-82 -75l-25 -120h-168l110 516h166z" />
    <glyph glyph-name="afii10110" unicode="&#x45e;" horiz-adv-x="537" 
d="M566 516l-275 -515q-29 -54 -47.5 -82t-47.5 -53.5t-65 -34.5t-90 -9q-48 0 -94 6l27 134q20 -3 68 -3q56 0 73 52l-96 505h172l23 -172q14 -96 18 -193q16 69 71 184l85 181h178zM467 712q-17 -78 -62 -112.5t-118 -34.5q-67 0 -108.5 27t-41.5 84q0 19 4 36h76
q0 -58 74 -58q73 0 100 58h76z" />
    <glyph glyph-name="afii10193" unicode="&#x45f;" 
d="M292 -142h-160l30 142h-177l110 516h170l-83 -387h174l83 387h170l-110 -516h-177z" />
    <glyph glyph-name="afii10050" unicode="&#x490;" horiz-adv-x="600" 
d="M634 554h-339l-118 -554h-187l151 712h352l32 150h174z" />
    <glyph glyph-name="afii10098" unicode="&#x491;" horiz-adv-x="474" 
d="M475 387h-233l-82 -387h-170l110 516h243l27 128h160z" />
    <glyph glyph-name="endash" unicode="&#x2013;" horiz-adv-x="500" 
d="M500 343l-31 -146h-500l31 146h500z" />
    <glyph glyph-name="emdash" unicode="&#x2014;" horiz-adv-x="1000" 
d="M1000 343l-31 -146h-1000l31 146h1000z" />
    <glyph glyph-name="quoteleft" unicode="&#x2018;" horiz-adv-x="296" 
d="M316 712l-18 -82q-45 -1 -66 -23.5t-32 -69.5h78l-37 -175h-181l32 151q21 98 71 148.5t145 50.5h8z" />
    <glyph glyph-name="quoteright" unicode="&#x2019;" horiz-adv-x="296" 
d="M316 712l-32 -151q-21 -98 -71 -148.5t-145 -50.5h-8l18 82q45 1 66 23.5t32 69.5h-78l37 175h181z" />
    <glyph glyph-name="quotesinglbase" unicode="&#x201a;" horiz-adv-x="296" 
d="M223 175l-32 -151q-21 -98 -71 -148.5t-145 -50.5h-8l18 82q45 1 66 23.5t32 69.5h-78l37 175h181z" />
    <glyph glyph-name="quotedblleft" unicode="&#x201c;" horiz-adv-x="500" 
d="M526 712l-17 -78q-41 -5 -62 -26.5t-30 -68.5h73l-38 -174h-161l34 159q20 95 67.5 139.5t133.5 48.5zM299 712l-17 -78q-41 -5 -62 -26.5t-30 -68.5h73l-38 -174h-161l34 159q20 95 67.5 139.5t133.5 48.5z" />
    <glyph glyph-name="quotedblright" unicode="&#x201d;" horiz-adv-x="500" 
d="M524 712l-34 -159q-20 -95 -67.5 -139.5t-133.5 -48.5l17 78q41 5 62 26.5t30 68.5h-73l38 174h161zM297 712l-34 -159q-20 -95 -67.5 -139.5t-133.5 -48.5l17 78q41 5 62 26.5t30 68.5h-73l38 174h161z" />
    <glyph glyph-name="quotedblbase" unicode="&#x201e;" horiz-adv-x="500" 
d="M410 174l-34 -159q-20 -95 -67.5 -139.5t-133.5 -48.5l17 78q41 5 62 26.5t30 68.5h-73l38 174h161zM183 174l-34 -159q-20 -95 -67.5 -139.5t-133.5 -48.5l17 78q41 5 62 26.5t30 68.5h-73l38 174h161z" />
    <glyph glyph-name="dagger" unicode="&#x2020;" 
d="M472 712l-41 -193h183l-30 -141h-182l-115 -547h-164l115 547h-180l30 141h180l41 193h163z" />
    <glyph glyph-name="daggerdbl" unicode="&#x2021;" 
d="M472 712l-40 -189h184l-29 -137h-183l-49 -229h183l-29 -137h-183l-41 -189h-162l40 189h-180l29 137h180l48 229h-180l29 137h181l41 189h161z" />
    <glyph glyph-name="bullet" unicode="&#x2022;" horiz-adv-x="500" 
d="M254 534q74 0 126 -52t52 -126t-52 -126t-126 -52t-126 52t-52 126t52 126t126 52z" />
    <glyph glyph-name="ellipsis" unicode="&#x2026;" horiz-adv-x="1000" 
d="M12 0l32 153h164l-32 -153h-164zM345 0l32 153h164l-32 -153h-164zM678 0l32 153h164l-32 -153h-164z" />
    <glyph glyph-name="perthousand" unicode="&#x2030;" horiz-adv-x="1148" 
d="M699 714l-510 -737h-104l510 737h104zM370 573q0 -87 -44 -151.5t-127 -64.5q-62 0 -96.5 35t-34.5 98q0 85 44.5 148.5t125.5 63.5q132 0 132 -129zM237 633q-23 0 -37 -20t-25.5 -61.5t-11.5 -72.5q0 -51 38 -51q24 0 39 22q13 21 23.5 62.5t10.5 74.5q0 20 -9.5 33
t-27.5 13zM724 205q0 -87 -44 -151.5t-127 -64.5q-62 0 -96.5 35t-34.5 98q0 85 44.5 148.5t125.5 63.5q132 0 132 -129zM591 265q-23 0 -37 -20t-25.5 -61.5t-11.5 -72.5q0 -51 38 -51q24 0 39 22q13 21 23.5 62.5t10.5 74.5q0 20 -9.5 33t-27.5 13zM1076 205
q0 -87 -44 -151.5t-127 -64.5q-62 0 -96.5 35t-34.5 98q0 85 44.5 148.5t125.5 63.5q132 0 132 -129zM943 265q-23 0 -37 -20t-25.5 -61.5t-11.5 -72.5q0 -51 38 -51q24 0 39 22q13 21 23.5 62.5t10.5 74.5q0 20 -9.5 33t-27.5 13z" />
    <glyph glyph-name="guilsinglleft" unicode="&#x2039;" horiz-adv-x="241" 
d="M223 466l-28 -138l-104 -69l73 -80l-26 -121l-129 140l31 147z" />
    <glyph glyph-name="guilsinglright" unicode="&#x203a;" horiz-adv-x="241" 
d="M75 467l130 -141l-32 -145l-184 -122l28 139l105 68l-73 80z" />
    <glyph glyph-name="afii61352" unicode="&#x2116;" horiz-adv-x="1096" 
d="M629 0l24 113h331l-24 -113h-331zM382 0l-140 381l-81 -381h-179l147 693h181l139 -379l80 379h178l-147 -693h-178zM869 405q-36 0 -54 -30.5t-18 -69.5q0 -58 51 -58q36 0 54 30t18 69q0 59 -51 59zM835 157q-72 0 -114.5 40.5t-42.5 105.5q0 86 58.5 139t146.5 53
q71 0 113.5 -40.5t42.5 -105.5q0 -86 -58 -139t-146 -53z" />
    <glyph glyph-name="trademark" unicode="&#x2122;" horiz-adv-x="1000" 
d="M229 356v278h-105v78h310v-78h-105v-278h-100zM470 356v356h150l63 -201l63 201h150v-356h-93v267l-83 -267h-74l-84 267v-267h-92z" />
    <glyph glyph-name="Delta" unicode="&#x2206;" horiz-adv-x="704" 
d="M490 702l135 -702h-682l386 702h161zM175 138h277l-67 400z" />
    <glyph glyph-name="radical" unicode="&#x221a;" horiz-adv-x="600" 
d="M602 786l-222 -1000h-134l-143 293l-56 -26l-54 114l187 86l109 -241l158 774h155z" />
    <glyph glyph-name="infinity" unicode="&#x221e;" horiz-adv-x="872" 
d="M414 355q48 63 90.5 94t106.5 31q88 0 141.5 -56.5t53.5 -149.5q0 -97 -53.5 -155t-142.5 -58q-60 0 -105 30.5t-91 86.5q-51 -65 -93.5 -90.5t-98.5 -25.5q-89 0 -144 58t-55 153q0 93 53 149.5t141 56.5q45 0 82.5 -17.5t61 -41.5t53.5 -65zM489 268q61 -78 119 -78
q34 0 54.5 21.5t20.5 58.5q0 36 -21.5 58.5t-55.5 22.5q-23 0 -48 -16t-35.5 -28t-33.5 -39zM340 268q-21 25 -34.5 38.5t-38.5 29t-48 15.5q-32 0 -52.5 -23.5t-20.5 -59.5q0 -35 21 -56t55 -21q25 0 48.5 13t36 26t33.5 38z" />
    <glyph glyph-name="approxequal" unicode="&#x2248;" horiz-adv-x="600" 
d="M561 491q-7 -94 -48 -150.5t-102 -56.5q-41 0 -121 26q-16 5 -41 13.5t-33.5 11t-22 6t-22 4.5t-18.5 1q-49 0 -57 -56h-94q2 47 16.5 90.5t50 78.5t85.5 35q15 0 36.5 -4t35.5 -8t39.5 -12t32.5 -10t25 -8t28.5 -9t25.5 -6t27 -3q28 0 42 12.5t19 44.5h96zM561 251
q-7 -94 -48 -150.5t-102 -56.5q-41 0 -121 26q-16 5 -41 13.5t-33.5 11t-22 6t-22 4.5t-18.5 1q-49 0 -57 -56h-94q2 47 16.5 90.5t50 78.5t85.5 35q15 0 36.5 -4t35.5 -8t39.5 -12t32.5 -10t25 -8t28.5 -9t25.5 -6t27 -3q28 0 42 12.5t19 44.5h96z" />
    <glyph glyph-name="notequal" unicode="&#x2260;" horiz-adv-x="600" 
d="M185 221l46 94h-214v146h286l79 160l128 -63l-47 -97h94v-146h-167l-46 -94h213v-146h-285l-80 -160l-128 63l48 97h-95v146h168z" />
    <glyph glyph-name="lessequal" unicode="&#x2264;" horiz-adv-x="600" 
d="M2 288v145l540 155v-150l-337 -77l337 -88v-150zM2 97h540v-146h-540v146z" />
    <glyph glyph-name="greaterequal" unicode="&#x2265;" horiz-adv-x="600" 
d="M570 288l-540 -165v150l337 88l-337 77v150l540 -155v-145zM570 97v-146h-540v146h540z" />
    <glyph glyph-name="hyphenminus" unicode="&#xe000;" horiz-adv-x="407" 
d="M354 342l-31 -145h-306l31 145h306z" />
    <glyph glyph-name="nbspace" unicode="&#xe001;" horiz-adv-x="315" 
 />
    </font>
</defs>
</svg>
