<?xml version="1.0" standalone="no"?>
<!DOCTYPE svg PUBLIC "-//W3C//DTD SVG 1.1//EN" "http://www.w3.org/Graphics/SVG/1.1/DTD/svg11.dtd" >
<svg xmlns="http://www.w3.org/2000/svg" xmlns:xlink="http://www.w3.org/1999/xlink" version="1.1">
<metadata>
Created by FontForge 20170731 at Tue Aug 29 14:39:49 2006
 By Aleksey,,,
Copyrighted (c) 1981, 1997 by and the property of Linotype-Hell AG and/or its subsidiaries. All Rights Reserved. All Cyrillic characters designed by DoubleAlex. Helvetica is a registered Trademark of Linotype-Hell AG and/or its subsidiaries.
</metadata>
<defs>
<font id="HelveticaNeueCyr-MediumItalic" horiz-adv-x="556" >
  <font-face 
    font-family="HelveticaNeueCyr"
    font-weight="550"
    font-style="italic"
    font-stretch="normal"
    units-per-em="1000"
    panose-1="2 0 6 3 5 0 0 9 0 4"
    ascent="800"
    descent="-200"
    x-height="516"
    cap-height="712"
    bbox="-139 -214 1098 928"
    underline-thickness="50"
    underline-position="-200"
    slope="-12"
    unicode-range="U+0020-E001"
  />
<missing-glyph horiz-adv-x="1000" 
 />
    <glyph glyph-name=".notdef" horiz-adv-x="1000" 
 />
    <glyph glyph-name=".null" horiz-adv-x="0" 
 />
    <glyph glyph-name="nonmarkingreturn" horiz-adv-x="333" 
 />
    <glyph glyph-name="space" unicode=" " horiz-adv-x="278" 
 />
    <glyph glyph-name="exclam" unicode="!" horiz-adv-x="296" 
d="M164 124l-26 -124h-128l26 124h128zM285 712l-44 -206l-97 -311h-58l34 310l43 207h122z" />
    <glyph glyph-name="quotedbl" unicode="&#x22;" horiz-adv-x="444" 
d="M171 405h-65l44 291h101zM345 405h-65l44 291h101z" />
    <glyph glyph-name="numbersign" unicode="#" 
d="M151 0h-94l43 195h-98l17 80h97l33 145h-97l17 80h97l44 196h94l-43 -196h110l43 196h94l-43 -196h96l-17 -80h-96l-33 -145h96l-17 -80h-96l-43 -195h-94l43 195h-110zM321 275l33 145h-110l-33 -145h110z" />
    <glyph glyph-name="dollar" unicode="$" 
d="M394 787l-17 -76q79 -9 126.5 -52.5t47.5 -121.5q0 -11 -1 -21h-106v15q0 41 -22.5 66t-62.5 29l-47 -220q191 -47 191 -189q0 -106 -76.5 -168.5t-186.5 -62.5h-17l-18 -85h-45l18 86q-91 8 -142 61.5t-51 140.5q0 14 1 28h112q-1 -11 -1 -23q0 -104 100 -119l51 245
q-42 12 -69.5 23.5t-56 31.5t-42.5 51t-14 73q0 97 68.5 156.5t179.5 59.5q2 0 7.5 -0.5t9.5 -0.5l16 73h47zM269 419l45 211h-9q-56 0 -92.5 -33.5t-36.5 -84.5q0 -41 23.5 -60t69.5 -33zM291 307l-50 -235h7q61 0 101.5 37t40.5 93q0 41 -23.5 65.5t-75.5 39.5z" />
    <glyph glyph-name="percent" unicode="%" horiz-adv-x="944" 
d="M775 725l-532 -756h-83l532 756h83zM415 559q0 -97 -50.5 -171.5t-142.5 -74.5q-68 0 -106 40t-38 112q0 96 50.5 168.5t142.5 72.5q69 0 106.5 -39t37.5 -108zM271 641q-29 0 -51 -20.5t-33.5 -51.5t-17 -61t-5.5 -56q0 -74 62 -74q36 0 61 36t33.5 76t8.5 75
q0 76 -58 76zM862 231q0 -97 -50.5 -171.5t-142.5 -74.5q-68 0 -106 40t-38 112q0 96 50.5 168.5t142.5 72.5q69 0 106.5 -39t37.5 -108zM718 313q-29 0 -51 -20.5t-33.5 -51.5t-17 -61t-5.5 -56q0 -74 62 -74q36 0 61 36t33.5 76t8.5 75q0 76 -58 76z" />
    <glyph glyph-name="ampersand" unicode="&#x26;" horiz-adv-x="667" 
d="M612 339q-9 -52 -38.5 -108t-69.5 -95l88 -136h-126l-39 65q-90 -79 -196 -79q-88 0 -147.5 52t-59.5 140q0 143 193 225q-50 82 -50 141q0 77 51 125t132 48q77 0 125 -41.5t48 -108.5q0 -36 -13.5 -66t-41 -54.5t-51 -40t-60.5 -35.5l93 -151q40 45 58 119h104z
M311 443q6 3 24 14t26.5 16.5t23 17t22 21.5t13.5 24t6 29q0 30 -20.5 49t-53.5 19q-37 0 -60.5 -23.5t-23.5 -59.5q0 -37 43 -107zM268 327q-29 -15 -47 -26t-41 -30t-35 -41.5t-12 -49.5q0 -44 30 -72t76 -28q76 0 137 66z" />
    <glyph glyph-name="quotesingle" unicode="'" horiz-adv-x="278" 
d="M180 405h-63l43 291h101z" />
    <glyph glyph-name="parenleft" unicode="(" horiz-adv-x="296" 
d="M368 721q-232 -285 -232 -605q0 -170 45 -302h-82q-72 161 -72 344q0 293 245 563h96z" />
    <glyph glyph-name="parenright" unicode=")" horiz-adv-x="296" 
d="M249 377q0 -293 -245 -563h-96q232 285 232 605q0 170 -45 302h82q72 -161 72 -344z" />
    <glyph glyph-name="asterisk" unicode="*" horiz-adv-x="389" 
d="M303 715l-24 -117l116 17l9 -64l-113 -15l52 -103l-59 -31l-52 106l-82 -92l-47 46l83 88l-102 51l30 58l102 -52l21 113z" />
    <glyph glyph-name="plus" unicode="+" horiz-adv-x="600" 
d="M235 0v210h-207v95h207v210h102v-210h208v-95h-208v-210h-102z" />
    <glyph glyph-name="comma" unicode="," horiz-adv-x="278" 
d="M168 135l-23 -112q-18 -87 -55.5 -131.5t-118.5 -48.5l13 59q40 8 58.5 31.5t25.5 66.5h-63l28 135h135z" />
    <glyph glyph-name="hyphen" unicode="-" horiz-adv-x="389" 
d="M338 327l-22 -103h-296l22 103h296z" />
    <glyph glyph-name="period" unicode="." horiz-adv-x="278" 
d="M166 135l-29 -135h-139l29 135h139z" />
    <glyph glyph-name="slash" unicode="/" horiz-adv-x="352" 
d="M428 729l-408 -746h-100l409 746h99z" />
    <glyph glyph-name="zero" unicode="0" 
d="M540 457q0 -48 -8 -100t-24 -105t-42.5 -100.5t-60 -85t-81 -59t-102.5 -21.5q-107 0 -158.5 72t-51.5 183q0 58 11 119.5t36.5 123.5t61 110.5t89.5 79t118 30.5q108 0 160 -67t52 -180zM324 611q-53 0 -94.5 -44t-62.5 -109t-31.5 -125.5t-10.5 -107.5q0 -145 107 -145
q52 0 92.5 44.5t61.5 110.5t31.5 126.5t10.5 106.5q0 143 -104 143z" />
    <glyph glyph-name="one" unicode="1" 
d="M452 704l-149 -704h-120l108 508q-69 -13 -149 -13q-15 0 -29 1l18 84q163 3 231 124h90z" />
    <glyph glyph-name="two" unicode="2" 
d="M482 98l-22 -98h-487q6 49 22.5 89t36.5 67.5t54.5 55t64.5 46t78 46.5q20 11 30 17q86 50 116 79q48 47 48 105q0 48 -30 76.5t-82 28.5q-66 0 -102.5 -42.5t-43.5 -110.5h-108q11 114 78 181.5t183 67.5q101 0 161 -52.5t60 -140.5q0 -70 -40 -126.5t-126 -108.5
q-19 -12 -54 -32.5t-49.5 -29t-39 -24t-36 -24.5t-27 -22t-25.5 -25t-19 -26q28 2 96 2z" />
    <glyph glyph-name="three" unicode="3" 
d="M108 229q-1 -11 -1 -22q0 -61 33 -93t97 -32t105.5 39t41.5 100q0 103 -125 103q-19 0 -37 -1l17 85h28q158 0 158 113q0 42 -29.5 66.5t-80.5 24.5q-116 0 -139 -130h-108q16 107 83.5 165.5t173.5 58.5q95 0 154 -48t59 -126q0 -62 -34.5 -104t-94.5 -60
q92 -33 92 -143t-79.5 -175t-191.5 -65q-105 0 -169 56.5t-64 150.5q0 20 2 37h109z" />
    <glyph glyph-name="four" unicode="4" 
d="M529 257l-21 -92h-94l-34 -165h-114l35 165h-314l23 103l413 438h104l-93 -449h95zM322 257l67 302q-46 -55 -49 -58l-188 -203q-11 -12 -18 -19t-9.5 -9t-7 -5.5t-9.5 -8.5q7 0 18 0.5t37 0.5h159z" />
    <glyph glyph-name="five" unicode="5" 
d="M546 696l-20 -100h-293l-52 -167q53 39 127 39q91 0 147 -57.5t56 -150.5q0 -78 -41 -145q-76 -129 -239 -129q-106 0 -167.5 54t-61.5 146v11h111q3 -34 13 -58q24 -60 110 -60q69 0 113.5 48.5t44.5 123.5q0 60 -33.5 94.5t-91.5 34.5q-82 0 -123 -64l-101 3l115 377
h386z" />
    <glyph glyph-name="six" unicode="6" 
d="M560 522h-112q-6 97 -100 97q-129 0 -193 -228q59 68 154 68q92 0 148 -57.5t56 -151.5q0 -112 -74.5 -188t-184.5 -76q-109 0 -170.5 69t-61.5 191q0 78 23.5 165.5t60.5 148.5q89 148 249 148q92 0 148.5 -49.5t56.5 -131.5v-5zM277 372q-63 0 -102.5 -45t-39.5 -117
q0 -59 33.5 -95t88.5 -36q62 0 102 46.5t40 118.5q0 59 -32 93.5t-90 34.5z" />
    <glyph glyph-name="seven" unicode="7" 
d="M591 696l-20 -95q-124 -124 -216 -279.5t-139 -321.5h-127q41 153 140.5 315t219.5 277q-9 0 -26.5 -0.5t-26.5 -0.5h-304l23 105h476z" />
    <glyph glyph-name="eight" unicode="8" 
d="M400 370q49 -17 77 -59t28 -98q0 -102 -76 -163.5t-188 -61.5q-110 0 -176 55.5t-66 149.5q0 74 46 124.5t126 63.5q-86 45 -86 136q0 84 63 137t162 53t160 -48t61 -127q0 -60 -36.5 -105t-94.5 -57zM310 619q-55 0 -87 -29.5t-32 -81.5q0 -45 30.5 -71t82.5 -26
q54 0 86 30t32 80t-30.5 74t-81.5 24zM261 331q-67 0 -106.5 -37t-39.5 -99q0 -55 34.5 -86.5t94.5 -31.5q65 0 105 38t40 101q0 115 -128 115z" />
    <glyph glyph-name="nine" unicode="9" 
d="M3 174h106q9 -98 106 -98q37 0 67 15.5t48 36.5t33.5 56.5t22.5 61t16 64.5q-63 -73 -157 -73q-90 0 -145.5 57t-55.5 149q0 115 74.5 190.5t187.5 75.5q107 0 166 -67t59 -189q0 -61 -10 -123t-33.5 -125t-58.5 -111t-90.5 -78.5t-123.5 -30.5q-98 0 -155 51t-57 138z
M302 613q-62 0 -104 -47t-42 -117q0 -58 31.5 -90.5t86.5 -32.5q63 0 103.5 45.5t40.5 117.5q0 56 -30.5 90t-85.5 34z" />
    <glyph glyph-name="colon" unicode=":" horiz-adv-x="278" 
d="M163 135l-29 -135h-135l29 135h135zM242 511l-29 -135h-135l29 135h135z" />
    <glyph glyph-name="semicolon" unicode=";" horiz-adv-x="278" 
d="M165 135l-23 -112q-18 -87 -55.5 -131.5t-118.5 -48.5l13 59q40 8 58.5 31.5t25.5 66.5h-63l28 135h135zM245 511l-29 -135h-135l29 135h135z" />
    <glyph glyph-name="less" unicode="&#x3c;" horiz-adv-x="600" 
d="M15 208v100l517 199v-106l-388 -143l388 -143v-108z" />
    <glyph glyph-name="equal" unicode="=" horiz-adv-x="600" 
d="M25 317v96h517v-96h-517zM25 102v96h517v-96h-517z" />
    <glyph glyph-name="greater" unicode="&#x3e;" horiz-adv-x="600" 
d="M559 208l-517 -201v108l388 143l-388 143v106l517 -199v-100z" />
    <glyph glyph-name="question" unicode="?" 
d="M285 124l-26 -124h-129l27 124h128zM289 199h-107q18 90 44.5 125.5t114.5 91.5q84 54 84 120q0 42 -27.5 67t-74.5 25q-114 0 -138 -141h-113q13 111 81 174t177 63q97 0 155.5 -48t58.5 -128q0 -33 -10 -61.5t-21 -47t-37.5 -41t-42 -33t-50.5 -33.5q-20 -13 -35 -26.5
t-23.5 -22.5t-15.5 -24.5t-9 -20t-6.5 -21.5t-4.5 -18z" />
    <glyph glyph-name="at" unicode="@" horiz-adv-x="800" 
d="M695 129l28 -38q-78 -57 -150 -82.5t-156 -25.5q-163 0 -275.5 100.5t-112.5 262.5q0 163 116.5 273t286.5 110q149 0 244 -83.5t95 -215.5q0 -105 -62.5 -184t-145.5 -79q-37 0 -60 20t-23 53q0 8 3 22q-50 -95 -139 -95q-61 0 -98.5 42.5t-37.5 110.5q0 97 60.5 169.5
t140.5 72.5q85 0 114 -71l15 55h82l-65 -219q-12 -40 -12 -61q0 -19 11 -29.5t31 -10.5q50 0 91 64.5t41 144.5q0 109 -79 177t-205 68q-150 0 -250 -96t-100 -240q0 -137 94.5 -224.5t242.5 -87.5q143 0 275 97zM493 436q0 29 -18 48t-46 19q-37 0 -67 -34.5t-44.5 -76.5
t-14.5 -77q0 -41 17.5 -65t48.5 -24q36 0 66 40.5t44 88t14 81.5z" />
    <glyph glyph-name="A" unicode="A" horiz-adv-x="685" 
d="M499 712l124 -712h-127l-29 188h-282l-109 -188h-136l426 712h133zM410 595q-42 -83 -105 -193l-68 -119h217l-22 146q-20 137 -22 166z" />
    <glyph glyph-name="B" unicode="B" horiz-adv-x="704" 
d="M151 712h270q50 0 87.5 -6t74.5 -22.5t57 -51t20 -86.5q0 -67 -36.5 -112.5t-98.5 -58.5q50 -16 77.5 -53.5t27.5 -92.5q0 -73 -45 -135t-115 -81q-50 -13 -161 -13h-308zM252 611l-42 -198h158q88 0 121 23q46 33 46 94q0 29 -16.5 49.5t-44.5 26.5q-26 5 -80 5h-142z
M192 325l-49 -227h160q68 0 102.5 7t57.5 26q43 36 43 96q0 33 -18 58.5t-49 32.5q-29 7 -98 7h-149z" />
    <glyph glyph-name="C" unicode="C" horiz-adv-x="722" 
d="M665 248q-26 -124 -114.5 -194.5t-216.5 -70.5q-140 0 -219 82.5t-79 229.5q0 116 45 213.5t135 158.5t208 61q124 0 199 -66t75 -175v-13h-121q-3 78 -43 114.5t-120 36.5q-61 0 -111 -30.5t-80.5 -79t-46.5 -105.5t-16 -115q0 -99 47.5 -154.5t132.5 -55.5
q76 0 127.5 42.5t71.5 120.5h126z" />
    <glyph glyph-name="D" unicode="D" horiz-adv-x="722" 
d="M151 712h178q96 0 136 -4.5t77 -20.5q70 -31 109 -100t39 -163q0 -134 -71.5 -250.5t-193.5 -154.5q-61 -19 -189 -19h-235zM254 608l-107 -504h139q100 0 162 48q52 40 84.5 114t32.5 153q0 65 -26.5 115t-83.5 65q-35 9 -98 9h-103z" />
    <glyph glyph-name="E" unicode="E" horiz-adv-x="630" 
d="M669 712l-22 -104h-393l-40 -191h365l-20 -100h-366l-45 -213h399l-23 -104h-523l151 712h517z" />
    <glyph glyph-name="F" unicode="F" horiz-adv-x="593" 
d="M641 712l-23 -104h-363l-41 -198h318l-21 -100h-318l-66 -310h-126l152 712h488z" />
    <glyph glyph-name="G" unicode="G" horiz-adv-x="759" 
d="M711 380l-80 -380h-80l-1 74q-79 -92 -217 -92q-136 0 -215 83q-76 82 -76 225q0 186 106.5 311t290.5 125q122 0 202.5 -61t80.5 -180h-121q-4 68 -47 103t-119 35q-87 0 -150 -51t-91 -125.5t-28 -158.5q0 -98 49.5 -152t139.5 -54q174 0 225 202h-196l21 96h306z" />
    <glyph glyph-name="H" unicode="H" horiz-adv-x="722" 
d="M727 712l-149 -712h-125l67 319h-332l-68 -319h-125l151 712h124l-60 -287h333l60 287h124z" />
    <glyph glyph-name="I" unicode="I" horiz-adv-x="278" 
d="M278 712l-150 -712h-126l151 712h125z" />
    <glyph glyph-name="J" unicode="J" horiz-adv-x="537" 
d="M555 712l-96 -459q-12 -56 -21 -89t-28 -72t-44 -60t-65.5 -35t-95.5 -14q-92 0 -147.5 43t-55.5 132q0 45 11 92h117q-12 -52 -12 -82q0 -84 90 -84q32 0 53.5 9.5t35 36t18 40t12.5 53.5q1 4 1.5 6.5t1.5 5.5l101 477h124z" />
    <glyph glyph-name="K" unicode="K" horiz-adv-x="685" 
d="M742 712l-343 -293l224 -419h-141l-178 341l-130 -108l-48 -233h-124l150 712h124l-72 -330q23 23 371 330h167z" />
    <glyph glyph-name="L" unicode="L" horiz-adv-x="574" 
d="M280 712l-129 -606h363l-22 -106h-489l152 712h125z" />
    <glyph glyph-name="M" unicode="M" horiz-adv-x="889" 
d="M890 712l-151 -712h-119l68 311q36 166 75 300q-60 -119 -113 -214l-227 -397h-102l-64 415q-19 122 -21 195q-11 -94 -55 -308l-62 -302h-120l152 712h172l56 -390q17 -121 17 -192q54 124 88 183l230 399h176z" />
    <glyph glyph-name="N" unicode="N" horiz-adv-x="722" 
d="M734 712l-151 -712h-130l-177 425q-37 91 -49 136q-5 -54 -33 -190l-78 -371h-121l152 712h130l175 -424q33 -81 51 -140q7 68 39 221l72 343h120z" />
    <glyph glyph-name="O" unicode="O" horiz-adv-x="759" 
d="M729 421q0 -120 -45.5 -219t-136 -160t-209.5 -61q-143 0 -224 84t-81 232q0 182 107.5 305.5t286.5 123.5q139 0 220.5 -82.5t81.5 -222.5zM419 622q-85 0 -146 -50t-88.5 -122.5t-27.5 -154.5q0 -98 50 -154.5t138 -56.5q83 0 143.5 53.5t87.5 128t27 154.5
q0 94 -46 148t-138 54z" />
    <glyph glyph-name="P" unicode="P" horiz-adv-x="667" 
d="M156 712h261q71 0 111 -9.5t70 -34.5q65 -54 65 -150q0 -87 -51 -155t-134 -80q-51 -8 -124 -8h-167l-58 -275h-125zM258 609l-49 -234h147q100 0 134 25q23 17 37.5 46t14.5 61q0 34 -13 56t-38.5 31.5t-48.5 12t-58 2.5h-126z" />
    <glyph glyph-name="Q" unicode="Q" horiz-adv-x="759" 
d="M668 -14l-69 -62l-94 97q-73 -39 -170 -39q-141 0 -221 85.5t-80 227.5q0 188 111 309.5t283 121.5q141 0 222 -83.5t81 -225.5q0 -103 -38.5 -193.5t-108.5 -150.5zM436 230l71 -74q99 107 99 261q0 96 -49 150.5t-135 54.5q-113 0 -188 -93t-75 -233q0 -98 49.5 -155
t136.5 -57q41 0 86 17l-64 66z" />
    <glyph glyph-name="R" unicode="R" horiz-adv-x="704" 
d="M151 712h284q75 0 119 -10q60 -14 93.5 -59.5t33.5 -111.5q0 -77 -43 -129.5t-117 -65.5q40 -17 56.5 -45t16.5 -79q0 -7 -4 -66t-4 -88q0 -36 11 -58h-126q-8 17 -8 52q0 16 5.5 73.5t5.5 76.5q0 59 -28 75t-95 16h-164l-62 -293h-124zM254 610l-47 -223h197
q66 0 101 23q52 36 52 105q0 31 -11.5 51t-33.5 29t-43.5 12t-52.5 3h-162z" />
    <glyph glyph-name="S" unicode="S" horiz-adv-x="648" 
d="M619 502h-120v7q0 120 -141 120q-68 0 -108.5 -28.5t-40.5 -75.5q0 -24 10 -41t32.5 -29t43 -19t56.5 -16q43 -11 68.5 -19t60.5 -24.5t53.5 -36.5t32.5 -52.5t14 -74.5q0 -113 -85.5 -170.5t-205.5 -57.5q-136 0 -207.5 60t-71.5 175q0 8 1 15h122v-12q0 -140 163 -140
q74 0 118.5 32.5t44.5 86.5q0 26 -10 44.5t-33 30.5t-37.5 17t-46.5 14q-48 13 -74 21t-63.5 25.5t-57 36.5t-34 51t-14.5 72q0 96 73.5 153.5t195.5 57.5q126 0 193.5 -54.5t67.5 -156.5v-12z" />
    <glyph glyph-name="T" unicode="T" horiz-adv-x="593" 
d="M665 712l-22 -103h-228l-128 -609h-125l128 609h-233l22 103h586z" />
    <glyph glyph-name="U" unicode="U" horiz-adv-x="741" 
d="M741 712l-100 -478q-51 -248 -316 -248q-52 0 -99.5 11.5t-87.5 35.5t-64 66.5t-24 98.5q0 35 15 107l85 407h125l-85 -405q-14 -70 -14 -94q0 -59 39.5 -91.5t112.5 -32.5q33 0 59.5 6.5t45 15.5t34 28.5t24 33.5t17.5 43.5t13 46.5t12 53l84 396h124z" />
    <glyph glyph-name="V" unicode="V" horiz-adv-x="611" 
d="M693 712l-391 -712h-142l-93 712h127l43 -359q14 -122 17 -236q47 108 94 197l212 398h133z" />
    <glyph glyph-name="W" unicode="W" horiz-adv-x="926" 
d="M995 712l-331 -712h-127l-25 379q-5 83 -5 198q-50 -130 -97 -232l-158 -345h-130l-48 712h124l13 -332q6 -181 2 -251q39 104 107 254l150 329h126l20 -302q13 -216 8 -277q44 121 112 278l130 301h129z" />
    <glyph glyph-name="X" unicode="X" horiz-adv-x="648" 
d="M700 712l-294 -348l179 -364h-136l-55 119q-56 121 -72 161q-11 -11 -34 -42t-29 -39l-162 -199h-150l318 374l-169 338h136l63 -135q11 -24 30 -69.5t23 -55.5q35 48 109 140l97 120h146z" />
    <glyph glyph-name="Y" unicode="Y" horiz-adv-x="630" 
d="M702 712l-348 -436l-59 -276h-123l60 284l-181 428h131l86 -221q20 -50 39 -107q30 46 67 94l180 234h148z" />
    <glyph glyph-name="Z" unicode="Z" horiz-adv-x="630" 
d="M665 712l-21 -102l-434 -436q-31 -31 -80 -73q19 0 56.5 1.5t56.5 1.5h322l-22 -104h-585l22 104l417 419q50 50 94 86q-10 0 -24 -0.5t-20 -0.5h-347l23 104h542z" />
    <glyph glyph-name="bracketleft" unicode="[" horiz-adv-x="296" 
d="M382 719l-18 -86h-118l-153 -726h118l-19 -88h-224l191 900h223z" />
    <glyph glyph-name="backslash" unicode="\" horiz-adv-x="352" 
d="M428 -17h-100l-408 746h99z" />
    <glyph glyph-name="bracketright" unicode="]" horiz-adv-x="296" 
d="M297 719l-192 -900h-224l19 87h118l155 727h-118l19 86h223z" />
    <glyph glyph-name="asciicircum" unicode="^" horiz-adv-x="600" 
d="M80 271l175 425h90l175 -425h-103l-119 298l-115 -298h-103z" />
    <glyph glyph-name="underscore" unicode="_" horiz-adv-x="500" 
d="M0 -125v50h500v-50h-500z" />
    <glyph glyph-name="grave" unicode="`" horiz-adv-x="241" 
d="M213 587h-82l-121 144h126z" />
    <glyph glyph-name="a" unicode="a" 
d="M58 360q32 168 237 168q92 0 145 -34t53 -93q0 -35 -13 -91l-35 -156q-11 -48 -11 -57q0 -20 23 -20q14 0 44 5l-18 -83q-43 -12 -75 -12q-38 0 -58.5 14t-23.5 51q-70 -69 -174 -69q-73 0 -117 39t-44 104q0 58 34 97.5t80 55.5t103 20q2 0 29.5 1.5t44.5 3t40 5.5
t34 11q27 16 27 61q0 64 -93 64q-103 0 -124 -85h-108zM360 255q-10 -8 -32.5 -14t-38 -8t-45.5 -5l-29 -2q-109 -10 -109 -89q0 -35 23.5 -54.5t65.5 -19.5q60 0 95.5 31.5t46.5 74.5z" />
    <glyph glyph-name="b" unicode="b" horiz-adv-x="611" 
d="M253 712l-54 -257q64 74 159 74q90 0 142.5 -58t52.5 -158q0 -128 -73.5 -227.5t-196.5 -99.5q-133 0 -170 102l-18 -88h-107l153 712h112zM321 441q-83 0 -129 -76t-46 -165q0 -58 32 -92t86 -34q73 0 124 68.5t51 165.5q0 61 -29.5 97t-88.5 36z" />
    <glyph glyph-name="c" unicode="c" 
d="M496 178q-26 -94 -90 -143.5t-160 -49.5q-106 0 -164.5 58.5t-58.5 163.5q0 134 80 228.5t213 94.5q94 0 150.5 -48.5t56.5 -129.5v-7h-111v4q0 44 -26.5 69t-74.5 25q-58 0 -99 -38t-58 -89.5t-17 -108.5q0 -135 118 -135q45 0 78 27.5t49 78.5h114z" />
    <glyph glyph-name="d" unicode="d" horiz-adv-x="611" 
d="M626 712l-150 -712h-107l15 72q-54 -86 -168 -86q-93 0 -144.5 54.5t-51.5 153.5q0 85 31.5 160t97.5 125.5t153 50.5q119 0 156 -88l56 270h112zM313 439q-77 0 -127.5 -67.5t-50.5 -171.5q0 -60 30 -92.5t84 -32.5q44 0 79.5 23.5t56.5 60.5t32 79t11 83
q0 55 -30.5 86.5t-84.5 31.5z" />
    <glyph glyph-name="e" unicode="e" 
d="M484 160q-21 -86 -88.5 -131.5t-160.5 -45.5q-106 0 -165.5 60.5t-59.5 166.5q0 137 82 228.5t204 91.5q101 0 159 -59t58 -162q0 -34 -7 -81h-384q-2 -28 -2 -30q0 -61 33 -95.5t90 -34.5q93 0 128 92h113zM135 306h270v14q0 61 -29 93t-84 32q-57 0 -98.5 -36.5
t-58.5 -102.5z" />
    <glyph glyph-name="f" unicode="f" horiz-adv-x="315" 
d="M341 516l-18 -82h-99l-92 -434h-114l92 434h-86l19 82h85l17 70q15 62 52.5 97.5t111.5 35.5q35 0 84 -8l-18 -87q-24 5 -43 5q-23 0 -37.5 -5t-23.5 -18.5t-12.5 -23t-9.5 -32.5q-1 -3 -1 -4t-1 -3t-1 -4l-6 -23h101z" />
    <glyph glyph-name="g" unicode="g" horiz-adv-x="593" 
d="M570 516l-103 -485q-8 -38 -17.5 -66t-29.5 -61.5t-47.5 -55t-73.5 -36.5t-105 -15q-97 0 -156 42.5t-59 113.5v8h114q6 -84 110 -84q39 0 66.5 11t44 35t25.5 47.5t19 63.5l11 45q-56 -74 -156 -74q-86 0 -140 57t-54 149q0 80 29.5 151t91.5 119t144 48q119 0 161 -100
l17 87h108zM298 441q-77 0 -121.5 -71t-44.5 -154q0 -59 30.5 -92.5t83.5 -33.5q70 0 118 66t48 163q0 55 -30 88.5t-84 33.5z" />
    <glyph glyph-name="h" unicode="h" horiz-adv-x="574" 
d="M249 712l-59 -270q75 87 180 87q68 0 109 -36.5t41 -96.5q0 -31 -12 -86l-65 -310h-115l63 296q9 45 9 69q0 71 -79 71q-67 0 -109 -48t-57 -119l-57 -269h-112l151 712h112z" />
    <glyph glyph-name="i" unicode="i" horiz-adv-x="241" 
d="M212 516l-109 -516h-114l109 516h114zM254 715l-24 -112h-113l24 112h113z" />
    <glyph glyph-name="j" unicode="j" horiz-adv-x="241" 
d="M210 516l-104 -500q-1 -3 -2 -8q-23 -110 -44 -145q-37 -61 -132 -61q-30 0 -59 5l20 92q19 -4 32 -4q27 0 39.5 14.5t23.5 69.5l113 537h113zM252 715l-23 -113h-114l24 113h113z" />
    <glyph glyph-name="k" unicode="k" horiz-adv-x="519" 
d="M251 712l-87 -406l237 210h145l-229 -194l129 -322h-125l-92 252l-92 -76l-37 -176h-111l152 712h110z" />
    <glyph glyph-name="l" unicode="l" horiz-adv-x="241" 
d="M253 712l-150 -712h-114l151 712h113z" />
    <glyph glyph-name="m" unicode="m" horiz-adv-x="889" 
d="M210 516l-18 -77q33 41 80.5 66t99.5 25q110 0 130 -93q78 91 182 91q63 0 104 -33.5t41 -85.5q0 -35 -15 -106l-64 -303h-114l62 298q11 51 11 76q0 28 -19 44t-52 16q-51 0 -92 -37t-54 -98l-64 -299h-114l63 298q12 56 12 79q0 27 -18 43t-48 16q-54 0 -97 -39.5
t-56 -99.5l-63 -297h-115l110 516h108z" />
    <glyph glyph-name="n" unicode="n" horiz-adv-x="574" 
d="M203 516l-17 -78q73 91 183 91q69 0 110.5 -35.5t41.5 -94.5q0 -34 -12 -88l-65 -311h-116l66 309q7 31 7 60q0 32 -20.5 49t-57.5 17q-69 0 -109.5 -45.5t-55.5 -116.5l-58 -273h-114l110 516h107z" />
    <glyph glyph-name="o" unicode="o" horiz-adv-x="593" 
d="M537 311q0 -135 -79.5 -231t-212.5 -96q-109 0 -169 59t-60 166q0 139 83.5 230.5t211.5 91.5q106 0 166 -57t60 -163zM305 445q-74 0 -125 -69t-51 -168q0 -65 32 -101t90 -36q73 0 123 70t50 172q0 59 -31 95.5t-88 36.5z" />
    <glyph glyph-name="p" unicode="p" horiz-adv-x="611" 
d="M204 516l-15 -68q66 81 168 81q90 0 142 -59t52 -160q0 -83 -29.5 -155t-92.5 -120.5t-148 -48.5q-125 0 -164 94l-57 -271h-113l150 707h107zM318 439q-57 0 -98 -40t-57.5 -93t-16.5 -108q0 -57 32.5 -90.5t88.5 -33.5q72 0 121 67t49 165q0 133 -119 133z" />
    <glyph glyph-name="q" unicode="q" horiz-adv-x="611" 
d="M583 516l-149 -707h-112l54 255q-66 -78 -167 -78q-89 0 -139.5 55t-50.5 153q0 85 31.5 160t97.5 125.5t153 50.5q120 0 159 -94l17 80h106zM311 438q-86 0 -132 -73.5t-46 -164.5q0 -61 29 -93.5t84 -32.5q58 0 101 40.5t61 95t18 110.5q0 54 -31 86t-84 32z" />
    <glyph glyph-name="r" unicode="r" horiz-adv-x="370" 
d="M404 526l-24 -111q-22 5 -46 5q-139 0 -181 -191l-50 -229h-113l110 516h107l-23 -103q70 116 180 116q22 0 40 -3z" />
    <glyph glyph-name="s" unicode="s" horiz-adv-x="500" 
d="M461 365h-108q0 47 -25 65.5t-75 18.5q-44 0 -68.5 -16.5t-24.5 -45.5q0 -28 27.5 -44t90.5 -37q15 -4 23 -7q131 -45 131 -141q0 -87 -67 -130t-159 -43q-103 0 -159.5 44.5t-56.5 125.5v10h108v-3q0 -94 117 -94q47 0 75.5 19.5t28.5 52.5q0 31 -23 46t-97 41
q-3 1 -5 2q-29 11 -43 16.5t-37.5 18.5t-35 26t-20.5 34.5t-9 48.5q0 72 58 114.5t155 42.5q94 0 146.5 -40.5t52.5 -113.5v-11z" />
    <glyph glyph-name="t" unicode="t" horiz-adv-x="333" 
d="M341 516l-19 -83h-101l-55 -254q-10 -43 -10 -59q0 -34 50 -34q23 0 54 4l-19 -89q-36 -6 -76 -6q-127 0 -127 94q0 25 14 86l55 258h-88l18 83h88l34 154h113l-33 -154h102z" />
    <glyph glyph-name="u" unicode="u" horiz-adv-x="574" 
d="M545 516l-109 -516h-108l18 77q-65 -92 -176 -92q-70 0 -111.5 36.5t-41.5 97.5q0 32 11 85l66 312h115l-58 -273q-16 -73 -16 -100q0 -31 22 -48.5t60 -17.5q64 0 103 48.5t54 117.5l58 273h113z" />
    <glyph glyph-name="v" unicode="v" horiz-adv-x="500" 
d="M516 516l-284 -516h-127l-71 516h117l28 -242q8 -78 10 -169q38 90 67 146l139 265h121z" />
    <glyph glyph-name="w" unicode="w" horiz-adv-x="778" 
d="M792 516l-267 -516h-120l-19 285q-3 52 -3 104q-5 -11 -18.5 -45.5t-22.5 -53.5l-132 -290h-120l-59 516h116l15 -176q12 -150 12 -225q20 59 45 114l129 287h120l16 -245q5 -73 5 -152q21 59 89 203l93 194h121z" />
    <glyph glyph-name="x" unicode="x" horiz-adv-x="500" 
d="M513 516l-218 -249l132 -267h-124l-56 127q-12 26 -28 66q-20 -28 -39 -51l-117 -142h-132l240 274l-116 242h124l49 -120q14 -32 19 -51q36 49 37 50l98 121h131z" />
    <glyph glyph-name="y" unicode="y" horiz-adv-x="500" 
d="M523 516l-321 -579q-40 -73 -85.5 -104t-109.5 -31q-36 0 -70 8l20 93q30 -8 56 -8q19 0 34 9t26 25.5t16 27t11 26.5l19 49l-87 484h118l29 -199q18 -119 25 -201q34 83 77 167l120 233h122z" />
    <glyph glyph-name="z" unicode="z" horiz-adv-x="481" 
d="M480 516l-17 -83l-273 -276q-21 -21 -80 -72q42 4 135 4h171l-19 -89h-445l18 84l272 274q32 32 77 70q-13 0 -56.5 -0.5t-67.5 -0.5h-146l19 89h412z" />
    <glyph glyph-name="braceleft" unicode="{" horiz-adv-x="296" 
d="M-48 240l13 60q45 7 74 20t46.5 38t26 48t18.5 67q23 95 30 115q52 135 239 135l-12 -62q-34 -3 -59 -15t-39.5 -25.5t-26.5 -40t-17.5 -45t-13.5 -55.5q-22 -99 -38 -129q-35 -68 -130 -79q-7 -1 -16 -2q54 -13 80 -42t26 -84q0 -34 -14.5 -101t-14.5 -91q0 -40 26 -55
t70 -18l-13 -60h-8q-74 0 -121.5 37t-47.5 107q0 36 13.5 106.5t13.5 88.5q0 66 -105 82z" />
    <glyph glyph-name="bar" unicode="|" horiz-adv-x="222" 
d="M61 -214v1000h100v-1000h-100z" />
    <glyph glyph-name="braceright" unicode="}" horiz-adv-x="296" 
d="M308 302l-13 -60q-45 -7 -73.5 -20t-46 -38t-25.5 -47.5t-19 -67.5q-21 -88 -31 -115q-51 -135 -239 -135l13 62q33 3 58 15t39.5 25.5t26.5 40t17.5 45t13.5 55.5q22 99 39 130q36 69 134 79q6 1 12 1q-54 13 -80 42t-26 84q0 34 14 101t14 91q0 40 -26 55t-70 18l13 60
h9q74 0 121.5 -37t47.5 -107q0 -37 -14 -107t-14 -88q0 -66 105 -82z" />
    <glyph glyph-name="asciitilde" unicode="~" horiz-adv-x="600" 
d="M550 340q-8 -79 -45 -121t-98 -42q-33 0 -134 32q-7 3 -29 10.5t-36 12.5t-31.5 9.5t-28.5 4.5q-26 0 -44.5 -19.5t-22.5 -51.5h-65q7 70 42 117t100 47q30 0 135 -34q10 -3 27.5 -9t25 -8.5l19.5 -6.5t19.5 -5.5t17 -2.5t18.5 -1q53 0 65 68h65z" />
    <glyph glyph-name="sterling" unicode="&#xa3;" 
d="M363 382l-13 -63h-126q5 -25 5 -45q0 -60 -26.5 -98t-83.5 -85q56 24 96 24q29 0 67 -11q61 -18 88 -18q7 0 14 1t12.5 2t13 4t11 4.5t11.5 6t11 6t12 7t12 7.5l36 -89q-75 -50 -145 -50q-37 0 -115 24q-60 19 -97 19q-13 0 -26.5 -3t-21 -5t-24.5 -10.5t-19.5 -9.5
t-23.5 -13l-36 86q67 49 95.5 91t28.5 92q0 28 -8 63h-89l14 63h63q-22 60 -22 113q0 100 73.5 162.5t176.5 62.5q102 0 164 -58t62 -154q0 -13 -1 -24h-111q1 8 1 17q0 59 -30.5 90.5t-86.5 31.5q-58 0 -94 -37.5t-36 -99.5q0 -51 19 -104h149z" />
    <glyph glyph-name="currency" unicode="&#xa4;" 
d="M34 160l66 66q-37 60 -37 120q0 66 37 120l-66 66l58 58l66 -66q49 37 120 37q62 0 121 -37l65 66l58 -58l-66 -66q37 -49 37 -121q0 -61 -37 -119l66 -66l-58 -58l-66 66q-50 -37 -119 -37q-67 0 -121 37l-66 -66zM278 474q-53 0 -90.5 -37.5t-37.5 -90.5t37.5 -90.5
t90.5 -37.5t90.5 37.5t37.5 90.5t-37.5 90.5t-90.5 37.5z" />
    <glyph glyph-name="brokenbar" unicode="&#xa6;" horiz-adv-x="222" 
d="M61 -89v250h100v-250h-100zM61 411v250h100v-250h-100z" />
    <glyph glyph-name="section" unicode="&#xa7;" 
d="M531 540h-104v9q0 40 -22.5 63t-62.5 23q-38 0 -61.5 -20.5t-23.5 -52.5t22.5 -59t85.5 -78q91 -74 119.5 -114.5t28.5 -89.5q0 -61 -39 -104.5t-103 -53.5q30 -37 30 -87q0 -72 -57 -119.5t-144 -47.5q-90 0 -144.5 49t-54.5 129v14h105v-3q0 -100 99 -100q39 0 63 20.5
t24 53.5q0 30 -29 62t-106 101q-70 62 -98.5 102.5t-28.5 89.5q0 60 38.5 102t102.5 52q-25 40 -25 80q0 76 59.5 118.5t137.5 42.5q87 0 138 -43.5t51 -118.5q0 -3 -0.5 -9t-0.5 -11zM314 125l10 -1q30 0 57 21.5t27 57.5q0 13 -5 26t-9 21t-16.5 22t-15.5 17t-19 18
l-113 107q-3 3 -14 3q-33 0 -58 -24t-25 -55q0 -39 47 -84z" />
    <glyph glyph-name="copyright" unicode="&#xa9;" horiz-adv-x="800" 
d="M400 729q154 0 263.5 -109.5t109.5 -263.5t-109.5 -263.5t-263.5 -109.5t-263.5 109.5t-109.5 263.5t109.5 263.5t263.5 109.5zM400 680q-134 0 -229 -95t-95 -229t95 -229t229 -95t229 95t95 229t-95 229t-229 95zM585 288q-7 -65 -56.5 -107.5t-118.5 -42.5
q-89 0 -147.5 62.5t-58.5 156.5q0 96 55.5 158t141.5 62q74 0 126 -44t56 -111h-76q-8 42 -35.5 66t-68.5 24q-53 0 -85 -42t-32 -110q0 -72 33 -114.5t89 -42.5q82 0 101 85h76z" />
    <glyph glyph-name="guillemotleft" unicode="&#xab;" horiz-adv-x="463" 
d="M226 438l-22 -105l-114 -69l81 -88l-19 -94l-126 138l25 110zM422 438l-23 -105l-113 -68l80 -89l-20 -93l-125 137l25 110z" />
    <glyph glyph-name="logicalnot" unicode="&#xac;" horiz-adv-x="600" 
d="M29 317v96h517v-311h-98v215h-419z" />
    <glyph glyph-name="registered" unicode="&#xae;" horiz-adv-x="400" 
d="M234 729q77 0 132 -54.5t55 -131.5q1 -77 -54.5 -132t-132.5 -55t-131.5 55t-54.5 132t54.5 131.5t131.5 54.5zM234 697q-64 0 -109 -45t-45 -109t45 -109.5t109 -45.5t109 45.5t45 109.5t-45 109t-109 45zM157 646h73q91 0 91 -60q0 -36 -37 -49q19 -7 26 -21.5t8 -46.5
q0 -15 5 -28h-46q-4 12 -4 28q-1 31 -10 40t-38 9h-22v-77h-46v205zM203 554h25q46 0 46 28q0 27 -46 27h-25v-55z" />
    <glyph glyph-name="degree" unicode="&#xb0;" horiz-adv-x="400" 
d="M239 706q67 0 114 -47t47 -114t-47 -114t-114 -47t-114 47t-47 114t47 114t114 47zM239 624q-33 0 -56 -23t-23 -56q0 -32 23 -55.5t56 -23.5t56 23.5t23 55.5q0 33 -23 56t-56 23z" />
    <glyph glyph-name="plusminus" unicode="&#xb1;" horiz-adv-x="600" 
d="M222 115v158h-207v96h207v162h102v-162h208v-96h-208v-158h-102zM15 -16v95h517v-95h-517z" />
    <glyph glyph-name="mu" unicode="&#xb5;" horiz-adv-x="574" 
d="M88 516h116l-61 -286q-13 -58 -13 -83q0 -33 22 -51.5t61 -18.5q66 0 104 49.5t53 122.5l57 267h113l-110 -516h-108l16 70q-59 -85 -149 -85q-61 0 -93 45l-44 -221h-115z" />
    <glyph glyph-name="paragraph" unicode="&#xb6;" horiz-adv-x="600" 
d="M626 635h-54l-174 -817h-93l174 817h-111l-174 -817h-93l91 431q-158 21 -158 171q0 131 90.5 211.5t225.5 80.5h292z" />
    <glyph glyph-name="periodcentered" unicode="&#xb7;" horiz-adv-x="278" 
d="M209 360l-29 -135h-139l29 135h139z" />
    <glyph glyph-name="guillemotright" unicode="&#xbb;" horiz-adv-x="463" 
d="M79 438l125 -137l-24 -110l-176 -108l22 105l113 68l-80 89zM274 439l126 -138l-26 -110l-175 -108l22 105l113 69l-80 88z" />
    <glyph glyph-name="divide" unicode="&#xf7;" horiz-adv-x="600" 
d="M26 210v95h517v-95h-517zM225 9v130h118v-130h-118zM225 376v130h118v-130h-118z" />
    <glyph glyph-name="florin" unicode="&#x192;" 
d="M467 438l-22 -80h-107l-93 -339q-27 -99 -67.5 -143.5t-133.5 -44.5q-26 0 -58 5l24 90q17 -3 33 -3q32 0 51 18t30 59l97 358h-94l22 80h94l31 113q24 86 64.5 125.5t127.5 39.5q29 0 74 -7l-24 -88q-24 5 -40 5q-23 0 -38.5 -6.5t-25.5 -22.5t-15 -29t-12 -39l-25 -91
h107z" />
    <glyph glyph-name="afii10023" unicode="&#x401;" horiz-adv-x="630" 
d="M669 712l-22 -104h-393l-40 -191h365l-20 -100h-366l-45 -213h399l-23 -104h-523l151 712h517zM563 899l-19 -108h-110l19 108h110zM383 899l-19 -108h-110l19 108h110z" />
    <glyph glyph-name="afii10051" unicode="&#x402;" horiz-adv-x="778" 
d="M403 -121q-9 0 -33 2l21 99q65 0 112 39t67 93t20 114q0 118 -114 118q-67 0 -115 -48t-66 -133l-35 -163h-125l130 608h-206l22 104h578l-22 -104h-247l-53 -247q74 81 179 81q95 0 147.5 -59.5t52.5 -154.5q0 -87 -36 -165.5t-109 -131t-168 -52.5z" />
    <glyph glyph-name="afii10052" unicode="&#x403;" horiz-adv-x="563" 
d="M125 0h-125l152 712h483l-22 -104h-358zM522 928l-135 -143h-82l85 143h132z" />
    <glyph glyph-name="afii10053" unicode="&#x404;" horiz-adv-x="722" 
d="M698 498h-123q-16 127 -161 127q-87 0 -147 -57t-88 -146h306l-21 -101h-303q-1 -9 -1 -26q0 -99 47.5 -154.5t132.5 -55.5q73 0 124.5 40t72.5 114h126q-28 -121 -115.5 -188.5t-213.5 -67.5q-140 0 -219 82.5t-79 229.5q0 116 45 213.5t135 158.5t208 61
q120 0 194.5 -63t79.5 -167z" />
    <glyph glyph-name="afii10054" unicode="&#x405;" horiz-adv-x="648" 
d="M619 502h-120v7q0 120 -141 120q-68 0 -108.5 -28.5t-40.5 -75.5q0 -24 10 -41t32.5 -29t43 -19t56.5 -16q43 -11 68.5 -19t60.5 -24.5t53.5 -36.5t32.5 -52.5t14 -74.5q0 -113 -85.5 -170.5t-205.5 -57.5q-136 0 -207.5 60t-71.5 175q0 8 1 15h122v-12q0 -140 163 -140
q74 0 118.5 32.5t44.5 86.5q0 26 -10 44.5t-33 30.5t-37.5 17t-46.5 14q-48 13 -74 21t-63.5 25.5t-57 36.5t-34 51t-14.5 72q0 96 73.5 153.5t195.5 57.5q126 0 193.5 -54.5t67.5 -156.5v-12z" />
    <glyph glyph-name="afii10055" unicode="&#x406;" horiz-adv-x="278" 
d="M278 712l-150 -712h-126l151 712h125z" />
    <glyph glyph-name="afii10056" unicode="&#x407;" horiz-adv-x="278" 
d="M278 712l-150 -712h-126l151 712h125zM385 899l-19 -108h-110l19 108h110zM205 899l-19 -108h-110l19 108h110z" />
    <glyph glyph-name="afii10057" unicode="&#x408;" horiz-adv-x="537" 
d="M555 712l-96 -459q-12 -56 -21 -89t-28 -72t-44 -60t-65.5 -35t-95.5 -14q-92 0 -147.5 43t-55.5 132q0 45 11 92h117q-12 -52 -12 -82q0 -84 90 -84q32 0 53.5 9.5t35 36t18 40t12.5 53.5q1 4 1.5 6.5t1.5 5.5l101 477h124z" />
    <glyph glyph-name="afii10058" unicode="&#x409;" horiz-adv-x="1035" 
d="M531 608h-210l-101 -406q-28 -112 -76.5 -165.5t-133.5 -53.5q-50 0 -84 17l21 100q20 -12 52 -12q42 0 69.5 41t57.5 170l98 413h454l-57 -273h111q71 0 111 -9.5t70 -34.5q65 -54 65 -150q0 -87 -51.5 -156t-133.5 -81q-51 -8 -124 -8h-267zM857 236q0 34 -13 56
t-38.5 31.5t-48.5 12t-58 2.5h-101l-49 -234h122q100 0 134 25q23 17 37.5 46t14.5 61z" />
    <glyph glyph-name="afii10059" unicode="&#x40a;" horiz-adv-x="1035" 
d="M478 338h-284l-72 -338h-125l151 712h124l-56 -268h285l56 268h124l-58 -273h111q71 0 111 -9.5t70 -34.5q65 -54 65 -150q0 -87 -51 -156t-134 -81q-51 -8 -124 -8h-266zM859 236q0 28 -9.5 47.5t-23 30t-36.5 16t-42 7t-47 1.5h-101l-49 -234h122q100 0 134 25
q23 17 37.5 46t14.5 61z" />
    <glyph glyph-name="afii10060" unicode="&#x40b;" horiz-adv-x="778" 
d="M506 442q61 0 103.5 -15.5t64 -43t30.5 -56t9 -61.5q0 -30 -7 -62l-44 -204h-125l40 187q9 38 9 61q0 92 -122 92q-24 0 -136 -16l-69 -324h-125l130 608h-206l22 104h578l-22 -104h-247l-39 -180q93 14 156 14z" />
    <glyph glyph-name="afii10061" unicode="&#x40c;" horiz-adv-x="685" 
d="M742 712l-343 -293l224 -419h-141l-178 341l-130 -108l-48 -233h-124l150 712h124l-72 -330q23 23 371 330h167zM565 928l-135 -143h-82l85 143h132z" />
    <glyph glyph-name="afii10062" unicode="&#x40e;" horiz-adv-x="611" 
d="M202 206l-135 506h130l60 -250q14 -60 30 -143q47 81 88 141l173 252h140l-392 -567q-54 -79 -108.5 -119t-123.5 -40q-46 0 -90 18l21 100q30 -16 68 -16q50 0 133 110zM565 892q-34 -141 -184 -141q-146 0 -146 118q0 7 2 23h58q3 -76 90 -76q90 0 122 76h58z" />
    <glyph glyph-name="afii10145" unicode="&#x40f;" horiz-adv-x="722" 
d="M473 108l126 604h125l-149 -712h-227l-38 -177h-125l38 177h-226l151 712h125l-128 -604h328z" />
    <glyph glyph-name="afii10017" unicode="&#x410;" horiz-adv-x="685" 
d="M499 712l124 -712h-127l-29 188h-282l-109 -188h-136l426 712h133zM410 595q-42 -83 -105 -193l-68 -119h217l-22 146q-20 137 -22 166z" />
    <glyph glyph-name="afii10018" unicode="&#x411;" horiz-adv-x="704" 
d="M666 712l-22 -104h-390l-35 -169h170q71 0 111 -9.5t70 -34.5q65 -54 65 -150q0 -87 -51.5 -156t-133.5 -81q-51 -8 -124 -8h-326l151 712h515zM514 236q0 34 -13 56t-38.5 31.5t-48.5 12t-58 2.5h-160l-49 -234h181q100 0 134 25q23 17 37.5 46t14.5 61z" />
    <glyph glyph-name="afii10019" unicode="&#x412;" horiz-adv-x="704" 
d="M151 712h270q50 0 87.5 -6t74.5 -22.5t57 -51t20 -86.5q0 -67 -36.5 -112.5t-98.5 -58.5q50 -16 77.5 -53.5t27.5 -92.5q0 -73 -45 -135t-115 -81q-50 -13 -161 -13h-308zM252 611l-42 -198h158q88 0 121 23q46 33 46 94q0 29 -16.5 49.5t-44.5 26.5q-26 5 -80 5h-142z
M192 325l-49 -227h160q68 0 102.5 7t57.5 26q43 36 43 96q0 33 -18 58.5t-49 32.5q-29 7 -98 7h-149z" />
    <glyph glyph-name="afii10020" unicode="&#x413;" horiz-adv-x="563" 
d="M125 0h-125l152 712h483l-22 -104h-358z" />
    <glyph glyph-name="afii10021" unicode="&#x414;" horiz-adv-x="722" 
d="M604 -177h-121l38 177h-464l-38 -177h-121l60 281h69q56 73 112.5 213t86.5 285l23 110h464l-129 -608h80zM459 104l107 504h-213l-9 -43q-27 -129 -79 -260.5t-100 -200.5h294z" />
    <glyph glyph-name="afii10022" unicode="&#x415;" horiz-adv-x="630" 
d="M669 712l-22 -104h-393l-40 -191h365l-20 -100h-366l-45 -213h399l-23 -104h-523l151 712h517z" />
    <glyph glyph-name="afii10024" unicode="&#x416;" horiz-adv-x="1043" 
d="M392 323l-298 -323h-162l396 417l-200 295h143l210 -323l68 323h122l-67 -318l335 318h159l-336 -310l214 -402h-146l-157 319l-106 -97l-47 -222h-122l51 238z" />
    <glyph glyph-name="afii10025" unicode="&#x417;" horiz-adv-x="648" 
d="M627 553q0 -66 -41.5 -110.5t-103.5 -59.5v-3q51 -10 81.5 -52t30.5 -99q0 -114 -87 -179t-214 -65q-137 0 -210 60.5t-73 174.5q0 8 1 15h122v-12q0 -140 163 -140q79 0 126 37t47 109q0 46 -31 70t-87 24h-104l18 94h99q53 0 95.5 37.5t42.5 88.5q0 41 -33 64t-94 23
q-70 0 -117.5 -30.5t-62.5 -94.5h-119q21 113 103 168.5t199 55.5q113 0 181 -46t68 -130z" />
    <glyph glyph-name="afii10026" unicode="&#x418;" horiz-adv-x="722" 
d="M-3 0l152 712h125l-116 -546l407 546h160l-152 -712h-125l116 546l-407 -546h-160z" />
    <glyph glyph-name="afii10027" unicode="&#x419;" horiz-adv-x="722" 
d="M615 892q-34 -141 -184 -141q-146 0 -146 118q0 7 2 23h58q3 -76 90 -76q90 0 122 76h58zM-3 0l152 712h125l-116 -546l407 546h160l-152 -712h-125l116 546l-407 -546h-160z" />
    <glyph glyph-name="afii10028" unicode="&#x41a;" horiz-adv-x="685" 
d="M742 712l-343 -293l224 -419h-141l-178 341l-130 -108l-48 -233h-124l150 712h124l-72 -330q23 23 371 330h167z" />
    <glyph glyph-name="afii10029" unicode="&#x41b;" horiz-adv-x="704" 
d="M558 0h-125l129 608h-216l-84 -339q-38 -152 -95 -218t-146 -66q-54 0 -84 15l22 96q17 -10 51 -10q44 0 78.5 55.5t71.5 211.5l85 359h464z" />
    <glyph glyph-name="afii10030" unicode="&#x41c;" horiz-adv-x="889" 
d="M890 712l-151 -712h-119l68 311q36 166 75 300q-60 -119 -113 -214l-227 -397h-102l-64 415q-19 122 -21 195q-11 -94 -55 -308l-62 -302h-120l152 712h172l56 -390q17 -121 17 -192q54 124 88 183l230 399h176z" />
    <glyph glyph-name="afii10031" unicode="&#x41d;" horiz-adv-x="722" 
d="M727 712l-149 -712h-125l67 319h-332l-68 -319h-125l151 712h124l-60 -287h333l60 287h124z" />
    <glyph glyph-name="afii10032" unicode="&#x41e;" horiz-adv-x="759" 
d="M729 421q0 -120 -45.5 -219t-136 -160t-209.5 -61q-143 0 -224 84t-81 232q0 182 107.5 305.5t286.5 123.5q139 0 220.5 -82.5t81.5 -222.5zM419 622q-85 0 -146 -50t-88.5 -122.5t-27.5 -154.5q0 -98 50 -154.5t138 -56.5q83 0 143.5 53.5t87.5 128t27 154.5
q0 94 -46 148t-138 54z" />
    <glyph glyph-name="afii10033" unicode="&#x41f;" horiz-adv-x="722" 
d="M725 712l-149 -712h-125l127 608h-328l-128 -608h-125l151 712h577z" />
    <glyph glyph-name="afii10034" unicode="&#x420;" horiz-adv-x="667" 
d="M156 712h261q71 0 111 -9.5t70 -34.5q65 -54 65 -150q0 -87 -51 -155t-134 -80q-51 -8 -124 -8h-167l-58 -275h-125zM258 609l-49 -234h147q100 0 134 25q23 17 37.5 46t14.5 61q0 34 -13 56t-38.5 31.5t-48.5 12t-58 2.5h-126z" />
    <glyph glyph-name="afii10035" unicode="&#x421;" horiz-adv-x="722" 
d="M665 248q-26 -124 -114.5 -194.5t-216.5 -70.5q-140 0 -219 82.5t-79 229.5q0 116 45 213.5t135 158.5t208 61q124 0 199 -66t75 -175v-13h-121q-3 78 -43 114.5t-120 36.5q-61 0 -111 -30.5t-80.5 -79t-46.5 -105.5t-16 -115q0 -99 47.5 -154.5t132.5 -55.5
q76 0 127.5 42.5t71.5 120.5h126z" />
    <glyph glyph-name="afii10036" unicode="&#x422;" horiz-adv-x="593" 
d="M665 712l-22 -103h-228l-128 -609h-125l128 609h-233l22 103h586z" />
    <glyph glyph-name="afii10037" unicode="&#x423;" horiz-adv-x="611" 
d="M202 206l-135 506h130l60 -250q14 -60 30 -143q47 81 88 141l173 252h140l-392 -567q-54 -79 -108.5 -119t-123.5 -40q-46 0 -90 18l21 100q30 -16 68 -16q50 0 133 110z" />
    <glyph glyph-name="afii10038" unicode="&#x424;" horiz-adv-x="807" 
d="M777 394q0 -77 -30.5 -138t-83 -98t-117.5 -56.5t-138 -21.5l-17 -80h-125l17 80q-111 12 -180.5 77.5t-69.5 171.5q0 77 30.5 138t83 98t117.5 56.5t138 21.5l15 69h125l-15 -69q111 -12 180.5 -77.5t69.5 -171.5zM651 392q0 119 -147 143l-73 -347q104 5 162 56.5
t58 147.5zM379 535q-104 -5 -162 -56.5t-58 -147.5q0 -119 147 -143z" />
    <glyph glyph-name="afii10039" unicode="&#x425;" horiz-adv-x="648" 
d="M700 712l-294 -348l179 -364h-136l-55 119q-56 121 -72 161q-11 -11 -34 -42t-29 -39l-162 -199h-150l318 374l-169 338h136l63 -135q11 -24 30 -69.5t23 -55.5q35 48 109 140l97 120h146z" />
    <glyph glyph-name="afii10040" unicode="&#x426;" horiz-adv-x="734" 
d="M595 104h78l-60 -281h-121l38 177h-533l151 712h125l-129 -608h326l129 608h125z" />
    <glyph glyph-name="afii10041" unicode="&#x427;" horiz-adv-x="685" 
d="M476 315q-118 -20 -191 -20q-61 0 -103.5 15t-64 41t-30.5 54t-9 60q0 30 7 60l39 187h125l-35 -165q-7 -30 -7 -57q0 -87 122 -87q83 0 170 17l62 292h125l-151 -712h-125z" />
    <glyph glyph-name="afii10042" unicode="&#x428;" horiz-adv-x="1073" 
d="M-3 0l151 712h125l-129 -608h276l129 608h125l-129 -608h276l129 608h125l-151 -712h-927z" />
    <glyph glyph-name="afii10043" unicode="&#x429;" horiz-adv-x="1085" 
d="M-4 0l151 712h125l-129 -608h276l129 608h125l-129 -608h276l129 608h125l-129 -608h78l-60 -281h-121l38 177h-884z" />
    <glyph glyph-name="afii10044" unicode="&#x42a;" horiz-adv-x="813" 
d="M757 245q0 -87 -51 -156t-134 -81q-51 -8 -124 -8h-302l130 608h-214l22 104h339l-58 -273h146q71 0 111 -9.5t70 -34.5q65 -54 65 -150zM636 236q0 34 -13 56t-38.5 31.5t-48.5 12t-58 2.5h-136l-49 -234h157q100 0 134 25q23 17 37.5 46t14.5 61z" />
    <glyph glyph-name="afii10045" unicode="&#x42b;" horiz-adv-x="896" 
d="M773 712h125l-151 -712h-125zM611 245q0 -87 -51.5 -156t-133.5 -81q-51 -8 -124 -8h-302l151 712h125l-57 -273h146q71 0 111 -9.5t70 -34.5q65 -54 65 -150zM490 236q0 34 -13 56t-38.5 31.5t-48.5 12t-58 2.5h-136l-49 -234h157q100 0 134 25q23 17 37.5 46t14.5 61z
" />
    <glyph glyph-name="afii10046" unicode="&#x42c;" horiz-adv-x="667" 
d="M611 245q0 -87 -51.5 -156t-133.5 -81q-51 -8 -124 -8h-302l151 712h125l-57 -273h146q71 0 111 -9.5t70 -34.5q65 -54 65 -150zM490 236q0 34 -13 56t-38.5 31.5t-48.5 12t-58 2.5h-136l-49 -234h157q100 0 134 25q23 17 37.5 46t14.5 61z" />
    <glyph glyph-name="afii10047" unicode="&#x42d;" horiz-adv-x="722" 
d="M694 416q0 -116 -45 -213.5t-135 -158.5t-208 -61q-124 0 -199 66t-75 175v13h121q3 -78 43 -114.5t120 -36.5q95 0 158 67.5t85 167.5h-307l21 101h297q-2 96 -49.5 150t-130.5 54q-137 0 -187 -127h-129q34 108 118.5 168.5t203.5 60.5q140 0 219 -82.5t79 -229.5z" />
    <glyph glyph-name="afii10048" unicode="&#x42e;" horiz-adv-x="1018" 
d="M988 421q0 -120 -44 -219.5t-131 -160t-202 -60.5q-138 0 -216.5 84t-78.5 232q0 15 1 22h-127l-68 -319h-125l151 712h124l-60 -287h119q33 135 129 218t236 83q135 0 213.5 -82.5t78.5 -222.5zM693 622q-80 0 -139.5 -50t-87 -123t-27.5 -154q0 -99 46 -155t128 -56
q60 0 109 31t79 80.5t46 108t16 116.5q0 95 -42 148.5t-128 53.5z" />
    <glyph glyph-name="afii10049" unicode="&#x42f;" horiz-adv-x="685" 
d="M346 293l-264 -293h-158l286 304q-60 15 -93.5 62.5t-33.5 112.5q0 84 48.5 148.5t127.5 76.5q51 8 123 8h308l-151 -712h-125l62 293h-130zM543 610h-157q-97 0 -130 -24q-49 -37 -49 -101q0 -32 11.5 -52t35.5 -29t46 -11.5t58 -2.5h139z" />
    <glyph glyph-name="afii10065" unicode="&#x430;" 
d="M58 360q32 168 237 168q92 0 145 -34t53 -93q0 -35 -13 -91l-35 -156q-11 -48 -11 -57q0 -20 23 -20q14 0 44 5l-18 -83q-43 -12 -75 -12q-38 0 -58.5 14t-23.5 51q-70 -69 -174 -69q-73 0 -117 39t-44 104q0 58 34 97.5t80 55.5t103 20q2 0 29.5 1.5t44.5 3t40 5.5
t34 11q27 16 27 61q0 64 -93 64q-103 0 -124 -85h-108zM360 255q-10 -8 -32.5 -14t-38 -8t-45.5 -5l-29 -2q-109 -10 -109 -89q0 -35 23.5 -54.5t65.5 -19.5q60 0 95.5 31.5t46.5 74.5z" />
    <glyph glyph-name="afii10066" unicode="&#x431;" horiz-adv-x="593" 
d="M337 517q87 0 143 -56.5t56 -156.5q0 -133 -77.5 -226.5t-207.5 -93.5q-112 0 -167 64t-55 173q0 91 35 201t86 173q78 98 224 108q11 1 29 2t25 1.5t18 2.5t16.5 4t11 6.5t9.5 10.5h114q-11 -41 -31 -66t-56.5 -37.5t-60.5 -16t-77 -7.5q-8 -1 -13.5 -1.5t-11.5 -0.5
q-75 -6 -129.5 -59t-77.5 -139h3q64 114 194 114zM142 201q0 -62 30.5 -96t84.5 -34q69 0 117.5 67.5t48.5 167.5q0 56 -29 90.5t-83 34.5q-70 0 -119.5 -66.5t-49.5 -163.5z" />
    <glyph glyph-name="afii10067" unicode="&#x432;" 
d="M98 516h238q36 0 63.5 -4.5t54 -16t41 -36.5t14.5 -63q0 -49 -26 -82t-71 -42q76 -24 76 -106q0 -53 -32.5 -98t-83.5 -59q-35 -9 -117 -9h-265zM242 87q82 0 109 21q27 24 27 62q0 21 -8.5 34.5t-27 18.5t-31 6t-35.5 1h-7h-119l-31 -143h123zM288 307q59 0 81 15
q29 20 29 59q0 17 -7.5 28t-22.5 14.5t-25 4.5t-29 1h-7h-114l-26 -122h121z" />
    <glyph glyph-name="afii10068" unicode="&#x433;" horiz-adv-x="426" 
d="M444 427h-247l-91 -427h-114l110 516h361z" />
    <glyph glyph-name="afii10069" unicode="&#x434;" horiz-adv-x="600" 
d="M488 -164h-108l35 164h-367l-35 -164h-108l54 253h65q87 136 139 369l13 58h388l-91 -427h69zM361 89l72 339h-165l-8 -35q-19 -83 -54.5 -172t-62.5 -132h218z" />
    <glyph glyph-name="afii10070" unicode="&#x435;" 
d="M484 160q-21 -86 -88.5 -131.5t-160.5 -45.5q-106 0 -165.5 60.5t-59.5 166.5q0 137 82 228.5t204 91.5q101 0 159 -59t58 -162q0 -34 -7 -81h-384q-2 -28 -2 -30q0 -61 33 -95.5t90 -34.5q93 0 128 92h113zM135 306h270v14q0 61 -29 93t-84 32q-57 0 -98.5 -36.5
t-58.5 -102.5z" />
    <glyph glyph-name="afii10072" unicode="&#x436;" horiz-adv-x="759" 
d="M801 516l-233 -204l134 -312h-126l-90 240l-75 -66l-37 -174h-110l36 172l-42 62l-190 -234h-147l280 318l-135 198h125l135 -224l48 224h110l-45 -207l220 207h142z" />
    <glyph glyph-name="afii10073" unicode="&#x437;" horiz-adv-x="519" 
d="M479 406q0 -45 -30 -80t-76 -45v-2q33 -7 57.5 -36t24.5 -74q0 -90 -71.5 -136.5t-167.5 -46.5q-110 0 -168 44t-58 126v10h108v-3q0 -94 117 -94q50 0 87.5 25.5t37.5 72.5q0 60 -91 60h-67l18 83h48q115 0 115 80q0 54 -84 54q-46 0 -77.5 -21t-38.5 -56h-115
q35 164 241 164q190 0 190 -125z" />
    <glyph glyph-name="afii10074" unicode="&#x438;" horiz-adv-x="574" 
d="M137 0h-149l110 516h114l-80 -376h3l269 376h148l-110 -516h-114l80 376h-3z" />
    <glyph glyph-name="afii10075" unicode="&#x439;" horiz-adv-x="574" 
d="M518 729q-33 -141 -183 -141q-146 0 -146 118q0 3 0.5 11t0.5 12h58q3 -76 90 -76q91 0 122 76h58zM137 0h-149l110 516h114l-80 -376h3l269 376h148l-110 -516h-114l80 376h-3z" />
    <glyph glyph-name="afii10076" unicode="&#x43a;" horiz-adv-x="519" 
d="M406 516h144l-233 -204l134 -312h-126l-92 238l-98 -86l-32 -152h-112l110 516h112l-49 -227z" />
    <glyph glyph-name="afii10077" unicode="&#x43b;" horiz-adv-x="574" 
d="M444 0h-114l90 427h-152l-61 -248q-25 -103 -74.5 -147t-123.5 -44q-36 0 -62 13l18 87q10 -5 35 -5q71 0 97 107l80 326h376z" />
    <glyph glyph-name="afii10078" unicode="&#x43c;" horiz-adv-x="704" 
d="M98 0h-110l110 516h140l61 -415h2l233 415h149l-110 -516h-110l73 343h-2l-197 -343h-113l-51 343h-2z" />
    <glyph glyph-name="afii10079" unicode="&#x43d;" horiz-adv-x="574" 
d="M102 0h-114l110 516h114l-43 -202h226l43 202h114l-110 -516h-114l48 224h-226z" />
    <glyph glyph-name="afii10080" unicode="&#x43e;" horiz-adv-x="593" 
d="M537 311q0 -135 -79.5 -231t-212.5 -96q-109 0 -169 59t-60 166q0 139 83.5 230.5t211.5 91.5q106 0 166 -57t60 -163zM305 445q-74 0 -125 -69t-51 -168q0 -65 32 -101t90 -36q73 0 123 70t50 172q0 59 -31 95.5t-88 36.5z" />
    <glyph glyph-name="afii10081" unicode="&#x43f;" horiz-adv-x="574" 
d="M102 0h-114l110 516h454l-110 -516h-114l91 427h-226z" />
    <glyph glyph-name="afii10082" unicode="&#x440;" horiz-adv-x="611" 
d="M204 516l-15 -68q66 81 168 81q90 0 142 -59t52 -160q0 -83 -29.5 -155t-92.5 -120.5t-148 -48.5q-125 0 -164 94l-57 -271h-113l150 707h107zM318 439q-57 0 -98 -40t-57.5 -93t-16.5 -108q0 -57 32.5 -90.5t88.5 -33.5q72 0 121 67t49 165q0 133 -119 133z" />
    <glyph glyph-name="afii10083" unicode="&#x441;" 
d="M496 178q-26 -94 -90 -143.5t-160 -49.5q-106 0 -164.5 58.5t-58.5 163.5q0 134 80 228.5t213 94.5q94 0 150.5 -48.5t56.5 -129.5v-7h-111v4q0 44 -26.5 69t-74.5 25q-58 0 -99 -38t-58 -89.5t-17 -108.5q0 -135 118 -135q45 0 78 27.5t49 78.5h114z" />
    <glyph glyph-name="afii10084" unicode="&#x442;" horiz-adv-x="464" 
d="M476 427h-170l-91 -427h-114l91 427h-170l19 89h454z" />
    <glyph glyph-name="afii10085" unicode="&#x443;" horiz-adv-x="500" 
d="M523 516l-321 -579q-40 -73 -85.5 -104t-109.5 -31q-36 0 -70 8l20 93q30 -8 56 -8q19 0 34 9t26 25.5t16 27t11 26.5l19 49l-87 484h118l29 -199q18 -119 25 -201q34 83 77 167l120 233h122z" />
    <glyph glyph-name="afii10086" unicode="&#x444;" horiz-adv-x="826" 
d="M308 131l54 251q-3 32 -26.5 46.5t-53.5 14.5q-54 0 -92.5 -46t-53.5 -102.5t-15 -110.5q0 -110 87 -110q35 0 63 17t37 40zM666 340q0 103 -84 103q-30 0 -60 -14.5t-46 -46.5l-54 -251v-1q0 -23 21 -39.5t55 -16.5q55 0 95 47.5t56.5 106t16.5 112.5zM502 -14
q-28 0 -57 14.5t-40 33.5h-3l-48 -225h-114l48 225h-3q-20 -20 -52 -34t-60 -14q-84 0 -124.5 55t-40.5 139q0 60 17 121t49 113t84.5 84.5t117.5 32.5q32 0 62.5 -16t40.5 -37h3l50 234h114l-50 -234h3q20 21 54 37t66 16q76 0 118 -48t42 -142q0 -84 -30 -163t-95 -135.5
t-152 -56.5z" />
    <glyph glyph-name="afii10087" unicode="&#x445;" horiz-adv-x="500" 
d="M513 516l-218 -249l132 -267h-124l-56 127q-12 26 -28 66q-20 -28 -39 -51l-117 -142h-132l240 274l-116 242h124l49 -120q14 -32 19 -51q36 49 37 50l98 121h131z" />
    <glyph glyph-name="afii10088" unicode="&#x446;" horiz-adv-x="590" 
d="M461 89h69l-54 -253h-110l35 164h-413l110 516h114l-91 -427h226l91 427h114z" />
    <glyph glyph-name="afii10089" unicode="&#x447;" horiz-adv-x="537" 
d="M339 223q-92 -27 -164 -27q-65 0 -102.5 36.5t-37.5 97.5q0 18 5 43l30 143h114l-28 -130q-4 -17 -4 -36q0 -62 70 -62q28 0 71 8t65 17l43 203h114l-110 -516h-114z" />
    <glyph glyph-name="afii10090" unicode="&#x448;" horiz-adv-x="814" 
d="M-12 0l110 516h114l-91 -427h176l91 427h114l-91 -427h176l91 427h114l-110 -516h-694z" />
    <glyph glyph-name="afii10091" unicode="&#x449;" horiz-adv-x="830" 
d="M-12 0l110 516h114l-91 -427h176l91 427h114l-91 -427h176l91 427h114l-91 -427h69l-54 -253h-110l35 164h-653z" />
    <glyph glyph-name="afii10092" unicode="&#x44a;" horiz-adv-x="630" 
d="M463 175q0 41 -26 53t-79 12h-111l-32 -151h123q69 0 91 16q34 24 34 70zM172 427h-147l19 89h260l-39 -188h131q94 0 134 -33q49 -40 49 -112q0 -65 -38 -116.5t-100 -60.5q-36 -6 -91 -6h-269z" />
    <glyph glyph-name="afii10093" unicode="&#x44b;" horiz-adv-x="722" 
d="M449 183q0 -65 -38.5 -116.5t-100.5 -60.5q-34 -6 -90 -6h-235l110 516h112l-39 -188h97q94 0 135 -33q49 -40 49 -112zM333 175q0 41 -26.5 53t-79.5 12h-77l-32 -151h89q70 0 92 16q34 24 34 70zM589 516h114l-110 -516h-114z" />
    <glyph glyph-name="afii10094" unicode="&#x44c;" horiz-adv-x="537" 
d="M486 183q0 -65 -38.5 -116.5t-100.5 -60.5q-35 -6 -90 -6h-269l110 516h112l-39 -188h131q94 0 135 -33q49 -40 49 -112zM370 175q0 41 -26.5 53t-79.5 12h-111l-32 -151h123q70 0 92 16q34 24 34 70z" />
    <glyph glyph-name="afii10095" unicode="&#x44d;" 
d="M523 308q0 -134 -80 -228.5t-213 -94.5q-94 0 -150.5 48.5t-56.5 129.5v7h111v-4q0 -44 26.5 -69t74.5 -25q65 0 106 43.5t58 110.5h-196l17 80h189q0 137 -118 137q-82 0 -120 -86h-115q29 84 91 128.5t153 44.5q106 0 164.5 -58.5t58.5 -163.5z" />
    <glyph glyph-name="afii10096" unicode="&#x44e;" horiz-adv-x="802" 
d="M748 311q0 -135 -76.5 -231t-204.5 -96q-104 0 -162 59t-58 166q0 3 0.5 8.5t0.5 8.5h-98l-48 -226h-114l110 516h114l-43 -204h92q27 99 99.5 159t170.5 60q101 0 159 -57t58 -163zM528 445q-69 0 -118.5 -69.5t-49.5 -167.5q0 -65 29 -101t82 -36q69 0 117.5 70.5
t48.5 171.5q0 59 -28 95.5t-81 36.5z" />
    <glyph glyph-name="afii10097" unicode="&#x44f;" 
d="M267 210l-180 -210h-141l198 221q-43 10 -67.5 45t-24.5 81q0 61 35.5 107.5t92.5 55.5q34 6 89 6h265l-109 -516h-114l45 210h-89zM197 413q-29 -20 -29 -61q0 -32 21 -42t72 -10h114l27 127h-121q-65 0 -84 -14z" />
    <glyph glyph-name="afii10071" unicode="&#x451;" 
d="M484 160q-21 -86 -88.5 -131.5t-160.5 -45.5q-106 0 -165.5 60.5t-59.5 166.5q0 137 82 228.5t204 91.5q101 0 159 -59t58 -162q0 -34 -7 -81h-384q-2 -28 -2 -30q0 -61 33 -95.5t90 -34.5q93 0 128 92h113zM135 306h270v14q0 61 -29 93t-84 32q-57 0 -98.5 -36.5
t-58.5 -102.5zM476 703l-19 -108h-110l19 108h110zM296 703l-19 -108h-110l19 108h110z" />
    <glyph glyph-name="afii10099" unicode="&#x452;" horiz-adv-x="574" 
d="M498 238q0 -32 -22 -135q-27 -125 -124.5 -207t-232.5 -87l21 99q85 10 144.5 63t76.5 131q17 85 17 105q0 71 -79 71q-67 0 -108.5 -48t-57.5 -119l-25 -111h-114l92 431h-52l18 85h52l41 196h114l-41 -196h227l-18 -85h-227l-31 -142h2q74 82 177 82q68 0 109 -36.5
t41 -96.5z" />
    <glyph glyph-name="afii10100" unicode="&#x453;" horiz-adv-x="426" 
d="M444 427h-247l-91 -427h-114l110 516h361zM434 731l-151 -144h-84l97 144h138z" />
    <glyph glyph-name="afii10101" unicode="&#x454;" 
d="M351 308l-17 -80h-196q-1 -7 -1 -21q0 -135 118 -135q45 0 78 27.5t49 78.5h114q-26 -94 -90 -143.5t-160 -49.5q-106 0 -164.5 58.5t-58.5 163.5q0 134 80 228.5t213 94.5q93 0 149 -47t58 -126h-111q-2 41 -28.5 63.5t-72.5 22.5q-60 0 -99.5 -37.5t-59.5 -97.5h199z
" />
    <glyph glyph-name="afii10102" unicode="&#x455;" horiz-adv-x="500" 
d="M461 365h-108q0 47 -25 65.5t-75 18.5q-44 0 -68.5 -16.5t-24.5 -45.5q0 -28 27.5 -44t90.5 -37q15 -4 23 -7q131 -45 131 -141q0 -87 -67 -130t-159 -43q-103 0 -159.5 44.5t-56.5 125.5v10h108v-3q0 -94 117 -94q47 0 75.5 19.5t28.5 52.5q0 31 -23 46t-97 41
q-3 1 -5 2q-29 11 -43 16.5t-37.5 18.5t-35 26t-20.5 34.5t-9 48.5q0 72 58 114.5t155 42.5q94 0 146.5 -40.5t52.5 -113.5v-11z" />
    <glyph glyph-name="afii10103" unicode="&#x456;" horiz-adv-x="241" 
d="M212 516l-109 -516h-114l109 516h114zM254 715l-24 -112h-113l24 112h113z" />
    <glyph glyph-name="afii10104" unicode="&#x457;" horiz-adv-x="241" 
d="M212 516l-109 -516h-114l109 516h114zM326 703l-19 -108h-110l19 108h110zM146 703l-19 -108h-110l19 108h110z" />
    <glyph glyph-name="afii10105" unicode="&#x458;" horiz-adv-x="241" 
d="M210 516l-104 -500q-1 -3 -2 -8q-23 -110 -44 -145q-37 -61 -132 -61q-30 0 -59 5l20 92q19 -4 32 -4q27 0 39.5 14.5t23.5 69.5l113 537h113zM252 715l-23 -113h-114l24 113h113z" />
    <glyph glyph-name="afii10106" unicode="&#x459;" horiz-adv-x="817" 
d="M769 183q0 -65 -38 -116.5t-101 -60.5q-34 -6 -90 -6h-228l89 427h-133l-61 -248q-25 -103 -74.5 -147t-123.5 -44q-36 0 -62 13l18 87q10 -5 35 -5q71 0 97 107l80 326h357l-38 -188h89q95 0 135 -33q49 -40 49 -112zM653 175q0 41 -26 53t-79 12h-71l-31 -151h81
q70 0 92 16q34 24 34 70z" />
    <glyph glyph-name="afii10107" unicode="&#x45a;" horiz-adv-x="817" 
d="M349 240h-196l-51 -240h-114l110 516h114l-40 -188h196l40 188h114l-39 -188h100q94 0 134 -33q49 -40 49 -112q0 -65 -38 -116.5t-100 -60.5q-36 -6 -91 -6h-238zM650 175q0 41 -26 53t-79 12h-80l-32 -151h91q70 0 92 16q34 24 34 70z" />
    <glyph glyph-name="afii10108" unicode="&#x45b;" horiz-adv-x="574" 
d="M498 238q0 -31 -12 -86l-33 -152h-115l31 138q9 40 9 69q0 71 -79 71q-67 0 -108.5 -48t-57.5 -119l-25 -111h-114l92 431h-52l18 85h52l41 196h114l-41 -196h227l-18 -85h-227l-31 -142h2q74 82 177 82q68 0 109 -36.5t41 -96.5z" />
    <glyph glyph-name="afii10109" unicode="&#x45c;" horiz-adv-x="519" 
d="M406 516h144l-233 -204l134 -312h-126l-92 238l-98 -86l-32 -152h-112l110 516h112l-49 -227zM484 731l-151 -144h-84l97 144h138z" />
    <glyph glyph-name="afii10110" unicode="&#x45e;" horiz-adv-x="500" 
d="M523 516l-321 -579q-40 -73 -85.5 -104t-109.5 -31q-36 0 -70 8l20 93q30 -8 56 -8q19 0 34 9t26 25.5t16 27t11 26.5l19 49l-87 484h118l29 -199q18 -119 25 -201q34 83 77 167l120 233h122zM468 729q-33 -141 -183 -141q-146 0 -146 118q0 3 0.5 11t0.5 12h58
q3 -76 90 -76q91 0 122 76h58z" />
    <glyph glyph-name="afii10193" unicode="&#x45f;" horiz-adv-x="574" 
d="M347 89l91 427h114l-110 -516h-171l-35 -164h-114l35 164h-169l110 516h114l-91 -427h226z" />
    <glyph glyph-name="afii10050" unicode="&#x490;" horiz-adv-x="563" 
d="M668 869l-57 -265h-358l-128 -604h-125l151 712h358l34 157h125z" />
    <glyph glyph-name="afii10098" unicode="&#x491;" horiz-adv-x="426" 
d="M497 670l-51 -244h-249l-91 -426h-114l110 516h249l32 154h114z" />
    <glyph glyph-name="endash" unicode="&#x2013;" horiz-adv-x="500" 
d="M500 325l-21 -100h-500l21 100h500z" />
    <glyph glyph-name="emdash" unicode="&#x2014;" horiz-adv-x="1000" 
d="M1001 325l-21 -100h-1000l21 100h1000z" />
    <glyph glyph-name="quoteleft" unicode="&#x2018;" horiz-adv-x="278" 
d="M285 726l-13 -60q-42 -4 -58.5 -27t-25.5 -68h64l-28 -132h-135l23 113q17 81 57 127.5t116 46.5z" />
    <glyph glyph-name="quoteright" unicode="&#x2019;" horiz-adv-x="278" 
d="M283 712l-23 -113q-17 -81 -57 -127.5t-116 -46.5l13 60q42 4 58.5 27t25.5 68h-64l28 132h135z" />
    <glyph glyph-name="quotesinglbase" unicode="&#x201a;" horiz-adv-x="278" 
d="M165 132l-23 -113q-17 -81 -57 -127.5t-116 -46.5l13 60q42 4 58.5 27t25.5 68h-64l28 132h135z" />
    <glyph glyph-name="quotedblleft" unicode="&#x201c;" horiz-adv-x="444" 
d="M457 724l-12 -57q-38 -6 -55 -29t-26 -68h60l-27 -128h-125l23 111q16 79 52.5 123.5t109.5 47.5zM260 724l-12 -57q-38 -6 -55 -29t-26 -68h60l-27 -128h-125l23 111q16 79 52.5 123.5t109.5 47.5z" />
    <glyph glyph-name="quotedblright" unicode="&#x201d;" horiz-adv-x="444" 
d="M457 712l-23 -111q-16 -79 -52.5 -123.5t-109.5 -47.5l12 57q38 6 55 29t26 68h-60l27 128h125zM260 712l-23 -111q-16 -79 -52.5 -123.5t-109.5 -47.5l12 57q38 6 55 29t26 68h-60l27 128h125z" />
    <glyph glyph-name="quotedblbase" unicode="&#x201e;" horiz-adv-x="444" 
d="M339 128l-23 -111q-16 -79 -52.5 -123.5t-109.5 -47.5l12 57q38 6 55 29t26 68h-60l27 128h125zM142 128l-23 -111q-16 -79 -52.5 -123.5t-109.5 -47.5l12 57q38 6 55 29t26 68h-60l27 128h125z" />
    <glyph glyph-name="dagger" unicode="&#x2020;" 
d="M406 712l-43 -203h191l-20 -95h-191l-121 -575h-110l121 575h-189l20 95h189l43 203h110z" />
    <glyph glyph-name="daggerdbl" unicode="&#x2021;" 
d="M403 712l-42 -197h192l-19 -94h-192l-61 -292h191l-20 -93h-192l-42 -195h-108l42 195h-190l20 93h189l62 292h-189l20 94h188l43 197h108z" />
    <glyph glyph-name="bullet" unicode="&#x2022;" horiz-adv-x="500" 
d="M250 534q74 0 126 -52t52 -126t-52 -126t-126 -52t-126 52t-52 126t52 126t126 52z" />
    <glyph glyph-name="ellipsis" unicode="&#x2026;" horiz-adv-x="1000" 
d="M34 0l28 130h117l-28 -130h-117zM367 0l28 130h117l-28 -130h-117zM700 0l28 130h117l-28 -130h-117z" />
    <glyph glyph-name="perthousand" unicode="&#x2030;" horiz-adv-x="1093" 
d="M691 725l-566 -756h-82l566 756h82zM363 573q0 -89 -49 -148.5t-123 -59.5q-60 0 -94 35t-34 97q0 86 45 148t128 62q127 0 127 -134zM231 646q-32 0 -53.5 -29t-28.5 -62t-7 -65q0 -65 53 -65q24 0 42 17.5t27 44.5t13.5 52t4.5 47q0 60 -51 60zM675 197
q0 -89 -49 -148.5t-123 -59.5q-60 0 -94 35t-34 97q0 86 45 148t128 62q127 0 127 -134zM543 270q-32 0 -53.5 -29t-28.5 -62t-7 -65q0 -65 53 -65q24 0 42 17.5t27 44.5t13.5 52t4.5 47q0 60 -51 60zM1026 197q0 -89 -49 -148.5t-123 -59.5q-60 0 -94 35t-34 97
q0 86 45 148t128 62q127 0 127 -134zM894 270q-32 0 -53.5 -29t-28.5 -62t-7 -65q0 -65 53 -65q24 0 42 17.5t27 44.5t13.5 52t4.5 47q0 60 -51 60z" />
    <glyph glyph-name="guilsinglleft" unicode="&#x2039;" horiz-adv-x="259" 
d="M219 438l-21 -105l-115 -68l81 -89l-20 -93l-125 137l25 110z" />
    <glyph glyph-name="guilsinglright" unicode="&#x203a;" horiz-adv-x="259" 
d="M80 439l125 -139l-25 -108l-176 -109l22 106l114 68l-81 88z" />
    <glyph glyph-name="afii61352" unicode="&#x2116;" horiz-adv-x="1068" 
d="M902 293q0 34 -17 54t-46 20q-41 0 -66.5 -33.5t-25.5 -75.5q0 -33 17.5 -52.5t46.5 -19.5q40 0 65.5 33.5t25.5 73.5zM805 121q-69 0 -107 35.5t-38 99.5q0 79 51 127.5t136 48.5q68 0 105.5 -36t37.5 -99q0 -80 -50 -128t-135 -48zM930 0h-325l18 85h325zM546 0h-132
l-190 507l-108 -507h-119l148 696h132l190 -508l108 508h119z" />
    <glyph glyph-name="trademark" unicode="&#x2122;" horiz-adv-x="990" 
d="M245 356v301h-115v55h299v-55h-114v-301h-70zM487 356v356h105l90 -251l89 251h103v-356h-63v293l-103 -293h-54l-103 293v-293h-64z" />
    <glyph glyph-name="Delta" unicode="&#x2206;" horiz-adv-x="682" 
d="M476 712l133 -712h-662l424 712h105zM110 92h385l-90 503z" />
    <glyph glyph-name="radical" unicode="&#x221a;" horiz-adv-x="600" 
d="M559 786l-212 -1000h-95l-156 322l-49 -23l-37 80l136 63l137 -289l173 847h103z" />
    <glyph glyph-name="infinity" unicode="&#x221e;" horiz-adv-x="796" 
d="M379 312q32 37 54.5 58t60.5 40.5t77 19.5q71 0 116 -47.5t45 -123.5q0 -77 -44.5 -125.5t-116.5 -48.5q-55 0 -100 29.5t-92 81.5q-7 -6 -33 -31t-36.5 -32.5t-32.5 -22t-43 -19.5t-47 -5q-72 0 -117.5 47.5t-45.5 123.5t45 124t115 48q58 0 101 -30t94 -87zM431 255
q79 -83 141 -83q35 0 57 23.5t22 60.5q0 39 -22.5 63t-58.5 24q-56 0 -139 -88zM326 255q-88 87 -143 87q-33 0 -55 -24.5t-22 -61.5q0 -38 22 -60.5t59 -22.5q26 0 53.5 14.5t44.5 29t41 38.5z" />
    <glyph glyph-name="approxequal" unicode="&#x2248;" horiz-adv-x="600" 
d="M554 439q-8 -79 -45 -121t-98 -42q-33 0 -134 32q-7 3 -29 10.5t-36 12.5t-31.5 9.5t-28.5 4.5q-26 0 -44.5 -19.5t-22.5 -51.5h-65q7 70 42 117t100 47q30 0 135 -34q10 -3 27.5 -9t25 -8.5l19.5 -6.5t19.5 -5.5t17 -2.5t18.5 -1q53 0 65 68h65zM554 240
q-8 -79 -45 -121t-98 -42q-33 0 -134 32q-7 3 -29 10.5t-36 12.5t-31.5 9.5t-28.5 4.5q-26 0 -44.5 -19.5t-22.5 -51.5h-65q7 70 42 117t100 47q30 0 135 -34q10 -3 27.5 -9t25 -8.5l19.5 -6.5t19.5 -5.5t17 -2.5t18.5 -1q53 0 65 68h65z" />
    <glyph glyph-name="notequal" unicode="&#x2260;" horiz-adv-x="600" 
d="M200 198l61 119h-236v95h285l77 152l84 -43l-56 -109h127v-95h-176l-61 -119h237v-96h-286l-77 -151l-84 43l56 108h-126v96h175z" />
    <glyph glyph-name="lessequal" unicode="&#x2264;" horiz-adv-x="600" 
d="M21 271v97l517 181v-101l-386 -128l386 -123v-101zM21 62h517v-96h-517v96z" />
    <glyph glyph-name="greaterequal" unicode="&#x2265;" horiz-adv-x="600" 
d="M555 271l-517 -175v101l386 123l-386 128v101l517 -181v-97zM555 62v-96h-517v96h517z" />
    <glyph glyph-name="hyphenminus" unicode="&#xe000;" horiz-adv-x="389" 
d="M338 327l-22 -103h-296l22 103h296z" />
    <glyph glyph-name="nbspace" unicode="&#xe001;" horiz-adv-x="278" 
 />
    </font>
</defs>
</svg>
