<?xml version="1.0" standalone="no"?>
<!DOCTYPE svg PUBLIC "-//W3C//DTD SVG 1.1//EN" "http://www.w3.org/Graphics/SVG/1.1/DTD/svg11.dtd" >
<svg xmlns="http://www.w3.org/2000/svg" xmlns:xlink="http://www.w3.org/1999/xlink" version="1.1">
<metadata>
Created by FontForge 20170731 at Tue Aug 29 14:39:49 2006
 By Aleksey,,,
Copyrighted (c) 1981, 1997 by and the property of Linotype-Hell AG and/or its subsidiaries. All Rights Reserved. All Cyrillic characters designed by DoubleAlex. Helvetica is a registered Trademark of Linotype-Hell AG and/or its subsidiaries.
</metadata>
<defs>
<font id="HelveticaNeueCyr-ThinItalic" horiz-adv-x="556" >
  <font-face 
    font-family="HelveticaNeueCyr"
    font-weight="100"
    font-style="italic"
    font-stretch="normal"
    units-per-em="1000"
    panose-1="2 0 5 3 4 0 0 9 0 4"
    ascent="800"
    descent="-200"
    x-height="512"
    cap-height="712"
    bbox="-144 -214 1046 909"
    underline-thickness="50"
    underline-position="-200"
    slope="-12"
    unicode-range="U+0020-E001"
  />
<missing-glyph horiz-adv-x="1000" 
 />
    <glyph glyph-name=".notdef" horiz-adv-x="1000" 
 />
    <glyph glyph-name=".null" horiz-adv-x="0" 
 />
    <glyph glyph-name="nonmarkingreturn" horiz-adv-x="333" 
 />
    <glyph glyph-name="space" unicode=" " horiz-adv-x="278" 
 />
    <glyph glyph-name="exclam" unicode="!" horiz-adv-x="204" 
d="M75 98l-21 -98h-47l21 98h47zM204 712l-47 -219l-74 -314h-29l60 315l46 218h44z" />
    <glyph glyph-name="quotedbl" unicode="&#x22;" horiz-adv-x="315" 
d="M129 437h-28l53 275h39zM269 437h-29l53 275h39z" />
    <glyph glyph-name="numbersign" unicode="#" 
d="M127 0h-37l47 217h-123l7 33h123l40 188h-123l7 32h122l46 215h36l-46 -215h155l46 215h36l-45 -215h122l-7 -32h-122l-40 -188h122l-7 -33h-122l-46 -217h-36l46 217h-156zM334 250l40 188h-155l-40 -188h155z" />
    <glyph glyph-name="dollar" unicode="$" 
d="M381 775l-17 -76q84 -9 131.5 -53.5t47.5 -126.5q0 -8 -1 -16h-38v15q0 129 -147 147l-62 -294q44 -13 71.5 -25t58.5 -33t46.5 -53t15.5 -75q0 -97 -72.5 -149t-174.5 -52q-13 0 -25 1l-20 -90h-27l19 91q-91 8 -142.5 61.5t-51.5 138.5q0 12 1 22h40q-1 -10 -1 -21
q0 -72 41.5 -115.5t119.5 -52.5l68 323q-98 31 -138 69t-40 100q0 84 64 137t166 53h23l15 74h29zM269 380l61 287q-9 1 -19 1q-82 0 -134.5 -43.5t-52.5 -110.5q0 -49 32.5 -79t112.5 -55zM288 334l-67 -316q12 -1 24 -1q81 0 141.5 43.5t60.5 121.5q0 45 -25 77t-56 46.5
t-78 28.5z" />
    <glyph glyph-name="percent" unicode="%" horiz-adv-x="759" 
d="M664 724l-532 -755h-39l532 755h39zM372 571q0 -84 -49 -152.5t-129 -68.5q-61 0 -98 37.5t-37 99.5q0 93 52 155.5t130 62.5q61 0 96 -36t35 -98zM238 675q-67 0 -105 -57.5t-38 -128.5q0 -50 26.5 -79t73.5 -29q65 0 103 59t38 128q0 49 -25.5 78t-72.5 29zM704 209
q0 -84 -49 -152.5t-129 -68.5q-61 0 -98 37.5t-37 99.5q0 93 52 155.5t130 62.5q61 0 96 -36t35 -98zM570 313q-67 0 -105 -57.5t-38 -128.5q0 -50 26.5 -79t73.5 -29q65 0 103 59t38 128q0 49 -25.5 78t-72.5 29z" />
    <glyph glyph-name="ampersand" unicode="&#x26;" horiz-adv-x="593" 
d="M511 293q-14 -79 -69 -162l86 -131h-46l-66 100q-85 -115 -212 -115q-83 0 -136 48.5t-53 124.5q0 29 6 53.5t20.5 45.5t26.5 35t37.5 30.5t38 24t44 23.5t40.5 21q-67 95 -67 167q0 65 44 106t113 41q65 0 105.5 -35.5t40.5 -91.5q0 -35 -13.5 -64t-45 -54.5t-50 -37.5
t-60.5 -35q-3 -2 -5 -3t-4.5 -2.5t-4.5 -2.5l140 -216q41 73 51 130h39zM262 408q32 16 54 28.5t51.5 34t45 48t15.5 55.5q0 43 -30.5 70.5t-79.5 27.5q-52 0 -85.5 -31.5t-33.5 -80.5q0 -26 11 -56t21.5 -47.5t30.5 -48.5zM247 362q-9 -5 -42 -22.5t-46 -25t-38.5 -26.5
t-36.5 -34.5t-20.5 -40t-9.5 -51.5q0 -63 43 -103t110 -40q53 0 105 31t84 82z" />
    <glyph glyph-name="quotesingle" unicode="'" horiz-adv-x="204" 
d="M149 437h-29l54 275h38z" />
    <glyph glyph-name="parenleft" unicode="(" horiz-adv-x="241" 
d="M310 718q-228 -279 -228 -615q0 -155 45 -288h-31q-53 142 -53 316q0 318 229 587h38z" />
    <glyph glyph-name="parenright" unicode=")" horiz-adv-x="241" 
d="M122 718q52 -136 52 -311q0 -325 -229 -592h-38q229 273 229 615q0 148 -45 288h31z" />
    <glyph glyph-name="asterisk" unicode="*" horiz-adv-x="352" 
d="M263 723l-28 -132l124 37l5 -28l-123 -36l69 -102l-26 -16l-72 108l-93 -98l-22 20l92 95l-105 59l15 25l107 -61l28 131z" />
    <glyph glyph-name="plus" unicode="+" horiz-adv-x="600" 
d="M271 29v225h-227v33h227v224h35v-224h227v-33h-227v-225h-35z" />
    <glyph glyph-name="comma" unicode="," horiz-adv-x="278" 
d="M133 102l-21 -100q-12 -55 -32 -85t-67 -45l7 33q20 7 32.5 24t17 31t10.5 40h-18l22 102h49z" />
    <glyph glyph-name="hyphen" unicode="-" horiz-adv-x="352" 
d="M273 290l-8 -39h-216l8 39h216z" />
    <glyph glyph-name="period" unicode="." horiz-adv-x="278" 
d="M120 102l-22 -102h-50l22 102h50z" />
    <glyph glyph-name="slash" unicode="/" horiz-adv-x="333" 
d="M385 718l-411 -727h-39l411 727h39z" />
    <glyph glyph-name="zero" unicode="0" 
d="M532 460q0 -73 -17.5 -151.5t-52.5 -153.5t-97 -123t-141 -48q-98 0 -150.5 63t-52.5 179q0 73 18 151t53 152t97.5 121.5t140.5 47.5q103 0 152.5 -65t49.5 -173zM329 663q-56 0 -102.5 -31.5t-76 -80t-50.5 -109t-29.5 -117.5t-8.5 -108q0 -93 43.5 -145t120.5 -52
q68 0 122 46.5t83.5 117t44.5 142t15 132.5q0 90 -38.5 147.5t-123.5 57.5z" />
    <glyph glyph-name="one" unicode="1" 
d="M403 688l-147 -688h-42l133 620q-90 -76 -204 -93l7 35q65 10 112.5 40t103.5 86h37z" />
    <glyph glyph-name="two" unicode="2" 
d="M444 37l-7 -37h-453q7 86 65.5 147.5t152.5 112.5q11 6 46.5 24t54 28.5t50.5 30t50.5 37t39 40.5t29.5 49t9 54q0 63 -43.5 101t-116.5 38q-84 0 -135.5 -52t-58.5 -145h-40q8 109 71 171t165 62q91 0 145 -47.5t54 -127.5q0 -32 -9.5 -61t-30 -54.5t-39.5 -44.5
t-53 -40.5t-54 -33t-58.5 -31.5t-51.5 -27q-48 -26 -82 -49t-69 -63t-44 -83q22 0 413 1z" />
    <glyph glyph-name="three" unicode="3" 
d="M57 225q-4 -20 -4 -44q0 -73 48 -117t128 -44q85 0 145.5 52.5t60.5 136.5q0 134 -182 134h-19l8 35q20 -1 40 -1q97 0 150 39t53 111q0 61 -44 98t-116 37q-77 0 -128.5 -47.5t-63.5 -129.5h-40q15 100 76.5 156t156.5 56q89 0 144.5 -46t55.5 -121q0 -70 -44 -115.5
t-120 -55.5q54 -14 85.5 -52t31.5 -97q0 -106 -74.5 -165.5t-182.5 -59.5q-96 0 -152.5 53t-56.5 144q0 24 4 43h40z" />
    <glyph glyph-name="four" unicode="4" 
d="M495 210l-7 -34h-114l-37 -176h-41l37 176h-332l8 40l433 474h40l-101 -480h114zM341 210l67 317q14 70 23 104l-383 -421h293z" />
    <glyph glyph-name="five" unicode="5" 
d="M539 685l-9 -38h-321l-94 -259q68 71 168 71q93 0 148.5 -54.5t55.5 -145.5q0 -116 -72 -195.5t-188 -79.5q-95 0 -150.5 50.5t-55.5 138.5q0 9 3 33h40q-2 -17 -2 -33q0 -74 46 -114.5t121 -40.5q92 0 153 66.5t61 167.5q0 79 -46 124.5t-125 45.5q-105 0 -168 -85
l-41 2l120 346h356z" />
    <glyph glyph-name="six" unicode="6" 
d="M540 517h-41q-5 147 -150 147q-43 0 -79 -14t-62 -42.5t-44.5 -57t-34.5 -73t-24 -73.5t-19 -75q32 59 84 92t116 33q94 0 152 -57t58 -149q0 -114 -70 -189t-176 -75q-103 0 -159 62t-56 175q0 82 26.5 181.5t67.5 166.5q80 130 220 130q90 0 140.5 -47t50.5 -132v-3z
M282 419q-88 0 -147 -62t-59 -155q0 -82 48 -132.5t127 -50.5q88 0 145.5 65t57.5 164q0 76 -48 123.5t-124 47.5z" />
    <glyph glyph-name="seven" unicode="7" 
d="M560 685l-10 -37q-140 -145 -238.5 -301.5t-162.5 -346.5h-45q47 161 162 344t241 302h-390l8 39h435z" />
    <glyph glyph-name="eight" unicode="8" 
d="M358 363q60 -15 95 -58t35 -107q0 -98 -76 -155t-177 -57q-103 0 -163 51t-60 140q0 83 53.5 135.5t147.5 61.5q-110 38 -110 143q0 80 61 130.5t159 50.5q92 0 147 -44.5t55 -119.5q0 -67 -46.5 -115t-120.5 -56zM325 664q-82 0 -132 -41t-50 -109q0 -60 44.5 -95
t120.5 -35q79 0 128 41t49 108q0 65 -46.5 98t-113.5 33zM261 351q-95 0 -151 -47t-56 -127q0 -73 50 -115t138 -42q91 0 147.5 50t56.5 130q0 75 -54 113t-131 38z" />
    <glyph glyph-name="nine" unicode="9" 
d="M17 166h39v-6q0 -66 40.5 -103.5t111.5 -37.5q52 0 93.5 22.5t68 54.5t47.5 81.5t31.5 89t20.5 91.5q-68 -130 -203 -130q-93 0 -150.5 57.5t-57.5 150.5q0 110 69 186.5t179 76.5q104 0 158 -62.5t54 -171.5q0 -108 -37 -229t-104 -188q-65 -65 -170 -65
q-91 0 -140.5 47t-49.5 133v3zM304 662q-92 0 -148.5 -65.5t-56.5 -160.5q0 -77 47.5 -124.5t126.5 -47.5q86 0 145 64t59 156q0 85 -45 131.5t-128 46.5z" />
    <glyph glyph-name="colon" unicode=":" horiz-adv-x="278" 
d="M125 102l-22 -102h-50l22 102h50zM213 512l-22 -102h-50l22 102h50z" />
    <glyph glyph-name="semicolon" unicode=";" horiz-adv-x="278" 
d="M213 512l-22 -102h-50l22 102h50zM125 102l-21 -100q-12 -55 -32 -85t-67 -45l7 33q20 7 32.5 24t17 31t10.5 40h-18l22 102h49z" />
    <glyph glyph-name="less" unicode="&#x3c;" horiz-adv-x="600" 
d="M32 252v36l489 203v-36l-447 -185l447 -183v-37z" />
    <glyph glyph-name="equal" unicode="=" horiz-adv-x="600" 
d="M55 343v33h489v-33h-489zM55 160v33h489v-33h-489z" />
    <glyph glyph-name="greater" unicode="&#x3e;" horiz-adv-x="600" 
d="M545 252l-489 -202v37l448 183l-448 185v36l489 -203v-36z" />
    <glyph glyph-name="question" unicode="?" horiz-adv-x="519" 
d="M224 98l-21 -98h-47l22 98h46zM237 181h-39q1 3 7.5 29.5t9.5 36.5t10.5 28.5t15.5 30.5q16 23 31.5 36t69.5 48q55 36 85.5 74.5t30.5 93.5q0 61 -39.5 96t-107.5 35q-166 0 -190 -197h-39q10 112 70 172.5t160 60.5q86 0 137.5 -45t51.5 -121q0 -109 -121 -187
q-5 -4 -24 -16t-27 -17.5t-21.5 -16.5t-23 -22t-16.5 -24q-14 -23 -31 -95z" />
    <glyph glyph-name="at" unicode="@" horiz-adv-x="800" 
d="M708 110l15 -20q-76 -53 -147 -78t-159 -25q-165 0 -277.5 97.5t-112.5 257.5q0 169 120.5 275.5t288.5 106.5q141 0 237 -79.5t96 -214.5q0 -94 -56 -176.5t-145 -82.5q-31 0 -52 18t-21 48q0 6 8 46q-53 -112 -150 -112q-63 0 -98 42.5t-35 105.5q0 86 57 161.5
t140 75.5q55 0 88 -31.5t36 -84.5l31 103h35l-59 -191q-25 -86 -25 -110q0 -22 15 -33.5t38 -11.5q50 0 89.5 40.5t58 93t18.5 100.5q0 126 -90 196t-217 70q-158 0 -269.5 -100.5t-111.5 -254.5q0 -100 51.5 -176.5t133 -114.5t178.5 -38q83 0 149.5 23.5t141.5 73.5z
M522 422q0 47 -26.5 77.5t-73.5 30.5q-69 0 -116 -69.5t-47 -143.5q0 -51 26 -85t75 -34q54 0 91 42.5t57 102.5q14 45 14 79z" />
    <glyph glyph-name="A" unicode="A" horiz-adv-x="611" 
d="M411 712l132 -712h-45l-41 230h-342l-140 -230h-50l440 712h46zM381 672q-11 -18 -32.5 -57t-33.5 -57l-179 -292h315l-53 295q-14 74 -17 111z" />
    <glyph glyph-name="B" unicode="B" horiz-adv-x="630" 
d="M148 712h226q40 0 68.5 -2t63 -11.5t56 -26t36.5 -47t15 -73.5q0 -73 -45.5 -122t-124.5 -60q62 -11 97.5 -48.5t35.5 -101.5q0 -94 -66 -157q-31 -29 -73.5 -44t-72 -17t-86.5 -2h-280zM183 674l-61 -288h219q229 0 229 164q0 34 -12 58t-28.5 36.5t-45 19.5t-51 8.5
t-56.5 1.5h-194zM114 351l-66 -315h215q97 0 146 13q55 14 89.5 61.5t34.5 108.5q0 35 -12 60t-30 38.5t-47 21.5t-53.5 10t-57.5 2h-219z" />
    <glyph glyph-name="C" unicode="C" horiz-adv-x="704" 
d="M655 248q-30 -120 -120.5 -192.5t-213.5 -72.5q-128 0 -203.5 80t-75.5 217q0 116 44 216t133.5 165t207.5 65t191 -64t74 -169h-43q-6 92 -64 143.5t-158 51.5q-103 0 -182.5 -60.5t-118.5 -151.5t-39 -194q0 -119 63.5 -190t171.5 -71q104 0 181.5 61t107.5 166h44z
" />
    <glyph glyph-name="D" unicode="D" horiz-adv-x="685" 
d="M149 712h195q136 0 196 -41q104 -69 104 -239q0 -106 -41.5 -200.5t-115.5 -154.5q-60 -49 -121.5 -63t-156.5 -14h-209zM184 674l-133 -636h223q102 0 178.5 59t113 147.5t36.5 189.5q0 126 -60.5 183t-188.5 57h-169z" />
    <glyph glyph-name="E" unicode="E" 
d="M614 712l-8 -38h-422l-60 -286h394l-8 -37h-394l-66 -313h435l-8 -38h-479l151 712h465z" />
    <glyph glyph-name="F" unicode="F" horiz-adv-x="519" 
d="M596 712l-8 -39h-404l-60 -285h363l-8 -37h-363l-75 -351h-43l150 712h448z" />
    <glyph glyph-name="G" unicode="G" horiz-adv-x="741" 
d="M692 348l-72 -348h-32l15 88q5 30 15 74q-98 -178 -287 -178q-137 0 -212 81t-75 221q0 118 46 217.5t137.5 161.5t210.5 62t191 -62.5t76 -168.5h-43q-8 94 -67 144t-160 50q-106 0 -187 -61t-121 -152.5t-40 -195.5q0 -121 66.5 -190.5t181.5 -69.5q128 0 205 79
t107 212h-262l8 36h299z" />
    <glyph glyph-name="H" unicode="H" horiz-adv-x="667" 
d="M679 712l-150 -712h-44l75 353h-445l-76 -353h-43l151 712h44l-68 -322h445l68 322h43z" />
    <glyph glyph-name="I" unicode="I" horiz-adv-x="185" 
d="M193 712l-151 -712h-44l151 712h44z" />
    <glyph glyph-name="J" unicode="J" horiz-adv-x="481" 
d="M497 712l-106 -501q-11 -54 -25.5 -91t-39.5 -69.5t-65 -49t-95 -16.5q-85 0 -132 41.5t-47 116.5q0 35 10 81h42q-10 -59 -10 -80q0 -59 35.5 -91t101.5 -32q45 0 77.5 14t52.5 43t31 59t20 74l107 501h43z" />
    <glyph glyph-name="K" unicode="K" horiz-adv-x="611" 
d="M678 712l-381 -301l273 -411h-49l-257 385l-171 -133l-52 -252h-43l149 712h43l-85 -405l511 405h62z" />
    <glyph glyph-name="L" unicode="L" horiz-adv-x="500" 
d="M193 712l-143 -674h401l-8 -38h-445l151 712h44z" />
    <glyph glyph-name="M" unicode="M" horiz-adv-x="815" 
d="M830 712l-152 -712h-42l105 488q26 122 44 182q-14 -22 -40 -65.5t-39 -64.5l-346 -540h-43l-115 534q-11 49 -26 136q-7 -33 -19.5 -101t-19.5 -102l-99 -467h-43l152 712h59l113 -529q4 -20 12.5 -68t14.5 -73q11 22 77 126l346 544h61z" />
    <glyph glyph-name="N" unicode="N" horiz-adv-x="685" 
d="M695 712l-151 -712h-48l-282 581q-10 20 -38 85q-7 -50 -21 -116l-116 -550h-43l151 712h50l252 -521q37 -76 66 -145l138 666h42z" />
    <glyph glyph-name="O" unicode="O" horiz-adv-x="741" 
d="M711 437q0 -87 -25 -167.5t-72 -145t-121 -103t-164 -38.5q-133 0 -211 81.5t-78 220.5q0 118 43.5 217.5t132.5 163t208 63.5q131 0 209 -79.5t78 -212.5zM419 691q-80 0 -145.5 -35t-106 -93t-62.5 -130t-22 -148q0 -121 67.5 -193t180.5 -72q63 0 118 24t94.5 64.5
t68 93.5t42.5 111.5t14 116.5q0 119 -66 190t-183 71z" />
    <glyph glyph-name="P" unicode="P" horiz-adv-x="593" 
d="M147 712h240q50 0 86.5 -7t70 -25t51 -54t17.5 -89q0 -64 -32 -116.5t-85 -78.5q-53 -25 -175 -25h-213l-67 -317h-44zM183 674l-68 -320h203q126 0 176 32q34 22 54.5 62.5t20.5 86.5q0 82 -50.5 110.5t-142.5 28.5h-193z" />
    <glyph glyph-name="Q" unicode="Q" horiz-adv-x="741" 
d="M645 -28l-26 -27l-100 93q-85 -55 -191 -55q-134 0 -211 83.5t-77 218.5q0 85 25.5 164t72.5 141.5t120.5 100.5t162.5 38q134 0 212 -80t78 -217q0 -110 -44 -211.5t-117 -161.5zM419 181l103 -94q70 56 107.5 149.5t37.5 189.5q0 122 -66.5 193.5t-179.5 71.5
q-103 0 -182 -60t-117.5 -150t-38.5 -191q0 -119 66.5 -193.5t186.5 -74.5q85 0 153 44l-96 88z" />
    <glyph glyph-name="R" unicode="R" horiz-adv-x="630" 
d="M150 712h242q49 0 86.5 -7t72 -24.5t53 -53t18.5 -88.5q0 -85 -55 -140.5t-145 -60.5q59 -10 81.5 -44.5t22.5 -96.5q0 -21 -2.5 -62t-2.5 -62q0 -42 10 -73h-45q-8 31 -8 71q0 23 2.5 70t2.5 59q0 42 -11.5 68t-38 37.5t-53 15t-71.5 3.5h-197l-69 -324h-44zM185 673
l-66 -312h211q74 0 115.5 9t70.5 32q29 22 46 58t17 75q0 35 -10.5 60t-28 40t-43.5 23.5t-52 11.5t-60 3h-200z" />
    <glyph glyph-name="S" unicode="S" horiz-adv-x="630" 
d="M605 507h-41v10q0 169 -204 169q-95 0 -150.5 -41.5t-55.5 -111.5q0 -21 6.5 -39t15 -31t26 -25.5t29.5 -19.5t36 -15.5t35 -12t37.5 -11t33.5 -9.5q86 -24 130.5 -61.5t44.5 -115.5q0 -94 -73.5 -150.5t-194.5 -56.5q-125 0 -194 59t-69 167q0 4 0.5 11t0.5 13h42v-19
q0 -100 59 -147.5t163 -47.5q101 0 162.5 46.5t61.5 123.5q0 59 -38 88.5t-106 49.5q-7 2 -36 10.5t-39 12t-36.5 12.5t-37.5 16t-31 18.5t-29.5 24t-20.5 28.5t-15.5 36t-4.5 43q0 88 67 140t181 52q120 0 183 -50.5t63 -146.5q0 -9 -1 -19z" />
    <glyph glyph-name="T" unicode="T" horiz-adv-x="519" 
d="M611 712l-8 -37h-248l-142 -675h-44l143 675h-257l8 37h548z" />
    <glyph glyph-name="U" unicode="U" horiz-adv-x="667" 
d="M681 712l-101 -481q-52 -245 -299 -245q-103 0 -173.5 51t-70.5 150q0 47 13 105l89 420h44l-91 -430q-12 -56 -12 -94q0 -77 54 -122t148 -45q107 0 173 57q27 23 45.5 58t26 61t17.5 72l94 443h43z" />
    <glyph glyph-name="V" unicode="V" horiz-adv-x="574" 
d="M655 712l-416 -712h-53l-119 712h45l86 -531q5 -27 12 -78t9 -65q25 48 76 137l312 537h48z" />
    <glyph glyph-name="W" unicode="W" horiz-adv-x="907" 
d="M968 712l-350 -712h-49l-45 508q-11 124 -12 164q-12 -25 -36 -76t-37 -76l-259 -520h-50l-60 712h44l42 -523q4 -47 8 -143q27 64 62 134l266 532h54l44 -498q10 -110 12 -166q35 85 73 161l248 503h45z" />
    <glyph glyph-name="X" unicode="X" 
d="M630 712l-320 -349l189 -363h-47l-118 226q-37 72 -53 108q-10 -10 -55 -60l-252 -274h-54l340 369l-177 343h47l114 -222q16 -31 46 -93q10 11 40.5 47.5t48.5 55.5l198 212h53z" />
    <glyph glyph-name="Y" unicode="Y" 
d="M651 712l-361 -420l-62 -292h-43l63 299l-192 413h47l129 -282q37 -82 43 -98q35 44 74 89l250 291h52z" />
    <glyph glyph-name="Z" unicode="Z" horiz-adv-x="537" 
d="M597 712l-9 -42l-562 -599q-26 -29 -33 -34q8 0 24.5 0.5t25.5 0.5h442l-7 -38h-541l9 44l531 566q21 22 63 64h-453l9 38h501z" />
    <glyph glyph-name="bracketleft" unicode="[" horiz-adv-x="241" 
d="M309 715l-7 -33h-101l-176 -826h99l-7 -34h-138l191 893h139z" />
    <glyph glyph-name="backslash" unicode="\" horiz-adv-x="333" 
d="M385 -9h-39l-411 727h39z" />
    <glyph glyph-name="bracketright" unicode="]" horiz-adv-x="241" 
d="M231 715l-192 -894h-139l7 34h101l177 826h-99l7 34h138z" />
    <glyph glyph-name="asciicircum" unicode="^" horiz-adv-x="600" 
d="M116 274l165 411h39l165 -411h-39l-146 372l-145 -372h-39z" />
    <glyph glyph-name="underscore" unicode="_" horiz-adv-x="500" 
d="M0 -125v50h500v-50h-500z" />
    <glyph glyph-name="grave" unicode="`" horiz-adv-x="167" 
d="M169 596h-36l-112 142h49z" />
    <glyph glyph-name="a" unicode="a" horiz-adv-x="500" 
d="M58 365q23 84 72.5 122.5t138.5 38.5q80 0 124 -32t44 -90q0 -28 -14 -88l-36 -157q-17 -70 -17 -97q0 -32 28 -32q10 0 33 5l-6 -33q-26 -6 -39 -6q-52 0 -52 55q0 18 7 46q-68 -112 -200 -112q-73 0 -114.5 37t-41.5 101q0 41 20 75t55 54q30 17 69 24.5t124 12.5
q104 7 125 31q19 22 19 75q0 95 -128 95q-72 0 -112.5 -30t-58.5 -95h-40zM379 288q-17 -16 -47 -22q-20 -4 -109 -9.5t-132 -25.5q-30 -13 -48 -42t-18 -64q0 -50 33 -78.5t91 -28.5q59 0 108 30.5t76 83.5q17 35 34 105z" />
    <glyph glyph-name="b" unicode="b" 
d="M183 712l-67 -315q70 130 202 130q85 0 135 -57t50 -154q0 -80 -29.5 -154t-92.5 -125.5t-145 -51.5q-72 0 -119 40.5t-58 113.5l-28 -139h-39l151 712h40zM312 492q-73 0 -128 -47.5t-79.5 -114t-24.5 -138.5q0 -80 41.5 -127.5t111.5 -47.5q71 0 126 48.5t80 115
t25 135.5q0 78 -38.5 127t-113.5 49z" />
    <glyph glyph-name="c" unicode="c" horiz-adv-x="519" 
d="M453 164q-27 -82 -88 -130t-147 -48q-93 0 -144 55.5t-51 156.5q0 84 31 157.5t96 122.5t151 49q84 0 133 -45t49 -122v-3h-40q0 63 -38.5 99t-105.5 36q-109 0 -172.5 -88.5t-63.5 -203.5q0 -86 41 -133t117 -47q135 0 191 144h41z" />
    <glyph glyph-name="d" unicode="d" 
d="M573 712l-150 -712h-39l22 100l9 29q-70 -144 -207 -144q-89 0 -139 53.5t-50 147.5q0 82 31 158.5t95.5 129.5t149.5 53q73 0 118 -37.5t53 -105.5q1 5 3.5 21t10.5 52l53 255h40zM297 492q-75 0 -131 -48t-81.5 -115.5t-25.5 -140.5q0 -81 41 -125.5t115 -44.5
q55 0 101 31.5t73.5 80.5t42.5 103.5t15 105.5q0 70 -40.5 111.5t-109.5 41.5z" />
    <glyph glyph-name="e" unicode="e" horiz-adv-x="519" 
d="M445 168q-25 -88 -84.5 -135.5t-145.5 -47.5q-95 0 -148 57.5t-53 161.5q0 138 76.5 230.5t190.5 92.5q90 0 141 -54.5t51 -151.5q0 -28 -6 -68h-409q-4 -21 -4 -49q0 -87 43.5 -136.5t120.5 -49.5q65 0 114 39.5t72 110.5h41zM63 287h368q3 24 3 35q0 81 -41 126
t-115 45q-79 0 -137 -55.5t-78 -150.5z" />
    <glyph glyph-name="f" unicode="f" horiz-adv-x="241" 
d="M272 512l-8 -35h-107l-102 -477h-40l102 477h-88l7 35h88l13 54q6 25 8 34t9 30t12.5 29.5t16 22t22.5 19t30 10.5t40 5q27 0 53 -4l-6 -36q-24 4 -40 4q-29 0 -48 -8.5t-30.5 -27.5t-16.5 -36t-12 -49l-10 -47h107z" />
    <glyph glyph-name="g" unicode="g" horiz-adv-x="537" 
d="M517 512l-97 -459q-13 -61 -29 -102t-43.5 -76.5t-72 -52.5t-106.5 -17q-87 0 -135.5 39t-48.5 109v11h41v-8q0 -118 147 -118q54 0 91 16t59.5 50t34.5 67t24 87l16 71q-65 -112 -182 -112q-89 0 -141 55.5t-52 150.5q0 128 72 213.5t181 85.5q74 0 121 -38t55 -105
l27 133h38zM279 492q-91 0 -153 -77t-62 -191q0 -79 42 -125.5t114 -46.5q98 0 155 87t57 191q0 74 -40.5 118t-112.5 44z" />
    <glyph glyph-name="h" unicode="h" horiz-adv-x="519" 
d="M179 712l-67 -310q80 123 206 123q67 0 109 -36t42 -95q0 -31 -15 -100l-63 -294h-40l62 295q14 67 14 95q0 46 -32.5 73t-87.5 27q-64 0 -111.5 -34t-72 -81.5t-38.5 -110.5l-57 -264h-40l151 712h40z" />
    <glyph glyph-name="i" unicode="i" horiz-adv-x="167" 
d="M141 512l-109 -512h-40l109 512h40zM184 712l-21 -101h-41l21 101h41z" />
    <glyph glyph-name="j" unicode="j" horiz-adv-x="167" 
d="M141 512l-120 -565q-7 -32 -13.5 -51.5t-19.5 -41t-35.5 -31.5t-54.5 -10q-20 0 -42 3l7 36q15 -3 32 -3q20 0 34.5 6.5t22 12.5t14.5 24.5t8.5 25.5t7.5 33l118 561h41zM183 712l-21 -101h-41l21 101h41z" />
    <glyph glyph-name="k" unicode="k" horiz-adv-x="463" 
d="M182 712l-101 -472l348 272h57l-263 -204l185 -308h-47l-169 283l-121 -94l-40 -189h-39l151 712h39z" />
    <glyph glyph-name="l" unicode="l" horiz-adv-x="167" 
d="M182 712l-151 -712h-40l151 712h40z" />
    <glyph glyph-name="m" unicode="m" horiz-adv-x="796" 
d="M140 512l-23 -106q71 120 184 120q59 0 92.5 -33t33.5 -91v-2q69 125 185 125q62 0 101 -34t39 -87q0 -34 -13 -94l-66 -310h-41l68 316q10 49 10 80q0 42 -30 67.5t-79 25.5q-71 0 -124 -60q-43 -49 -63 -144l-61 -285h-41l67 311q11 53 11 83q0 44 -27.5 70t-72.5 26
q-69 0 -125 -59q-51 -55 -74 -160l-58 -271h-41l109 512h39z" />
    <glyph glyph-name="n" unicode="n" horiz-adv-x="519" 
d="M136 512l-23 -109q79 123 204 123q67 0 108 -36.5t41 -95.5q0 -37 -14 -101l-63 -293h-41l64 301q13 69 13 88q0 46 -32 73.5t-87 27.5q-88 0 -150 -70q-49 -53 -72 -163l-55 -257h-40l109 512h38z" />
    <glyph glyph-name="o" unicode="o" horiz-adv-x="537" 
d="M490 323q0 -61 -17.5 -120t-50 -108.5t-85.5 -79.5t-118 -30q-97 0 -150.5 56t-53.5 157q0 132 74 230.5t202 98.5q94 0 146.5 -54.5t52.5 -149.5zM288 492q-73 0 -128 -45.5t-80 -111t-25 -137.5q0 -85 43.5 -132t121.5 -47q57 0 102.5 28.5t72.5 74t41 98t14 105.5
q0 77 -43 122t-119 45z" />
    <glyph glyph-name="p" unicode="p" 
d="M133 512l-25 -119q67 134 206 134q85 0 134.5 -56.5t49.5 -153.5q0 -80 -29.5 -154t-92 -126t-144.5 -52q-75 0 -122 42.5t-54 115.5l-68 -328h-40l148 697h37zM303 493q-55 0 -102.5 -31t-75.5 -81q-51 -94 -51 -193q0 -78 42.5 -124t114.5 -46q53 0 97.5 28.5t72 73.5
t42.5 97t15 101q0 79 -39 127t-116 48z" />
    <glyph glyph-name="q" unicode="q" 
d="M530 512l-148 -697h-40l67 308q-30 -63 -84.5 -100.5t-122.5 -37.5q-86 0 -135 54t-49 149q0 81 31 157t95.5 129t147.5 53q75 0 121 -37.5t53 -106.5l27 129h37zM295 493q-75 0 -130.5 -47.5t-81 -115t-25.5 -140.5q0 -82 40 -127t113 -45q74 0 129.5 53.5t80.5 125
t25 142.5q0 70 -41 112t-110 42z" />
    <glyph glyph-name="r" unicode="r" horiz-adv-x="278" 
d="M332 516l-8 -43q-13 2 -28 2q-67 0 -117 -41q-31 -25 -53.5 -66t-32 -73.5t-20.5 -83.5l-45 -211h-41l109 512h38l-28 -129q73 135 194 135q2 0 32 -2z" />
    <glyph glyph-name="s" unicode="s" horiz-adv-x="463" 
d="M421 363h-40v15q0 57 -34 84t-106 27q-64 0 -100.5 -26t-36.5 -72q0 -15 4 -28t14 -23t18 -17t24.5 -14.5t24.5 -11t27.5 -10t24.5 -8.5q33 -12 53 -21t44.5 -26t36 -40.5t11.5 -54.5q0 -76 -60 -114t-139 -38q-91 0 -141 42t-50 118q0 2 2 26h40q-2 -24 -2 -25
q0 -61 40 -94t114 -33q67 0 110.5 31.5t43.5 81.5q0 14 -4 26.5t-9.5 21.5t-16.5 18t-18.5 14t-23 12.5t-22.5 10t-25 9t-22 8.5q-29 11 -41.5 16t-35.5 17.5t-33.5 24.5t-19.5 32t-9 45q0 63 49.5 101t131.5 38q177 0 177 -146q0 -9 -1 -17z" />
    <glyph glyph-name="t" unicode="t" horiz-adv-x="259" 
d="M270 512l-8 -35h-108l-72 -339q-10 -46 -10 -62q0 -43 60 -43q25 0 51 5l-7 -36q-30 -5 -56 -5q-90 0 -90 70q0 21 11 72l72 338h-95l8 35h94l34 160h41l-33 -160h108z" />
    <glyph glyph-name="u" unicode="u" horiz-adv-x="519" 
d="M491 512l-109 -512h-39l24 112q-37 -66 -83 -96.5t-109 -30.5q-69 0 -111.5 37t-42.5 97q0 35 13 97l63 296h41l-61 -288q-15 -74 -15 -99q0 -47 34 -76t89 -29q85 0 137.5 69t72.5 163l55 260h41z" />
    <glyph glyph-name="v" unicode="v" horiz-adv-x="426" 
d="M454 512l-291 -512h-46l-90 512h43l62 -369q13 -84 15 -104q8 18 49 93l213 380h45z" />
    <glyph glyph-name="w" unicode="w" horiz-adv-x="704" 
d="M738 512l-271 -512h-46l-39 359q-9 87 -10 110q-22 -50 -45 -92l-194 -377h-47l-60 512h43l34 -316q10 -88 14 -155q9 23 52 106l185 365h51l37 -338q10 -87 11 -132q17 42 70 144l171 326h44z" />
    <glyph glyph-name="x" unicode="x" horiz-adv-x="426" 
d="M451 512l-228 -247l143 -265h-47l-125 239l-219 -239h-50l251 269l-129 243h46l112 -218l197 218h49z" />
    <glyph glyph-name="y" unicode="y" horiz-adv-x="426" 
d="M459 512l-289 -507q-49 -88 -79 -128q-24 -34 -51.5 -48t-68.5 -14q-10 0 -39 3l8 35q19 -1 33 -1q42 0 66 21t50 66l36 61l-99 512h42l63 -323q12 -58 24 -143q28 58 71 133l188 333h45z" />
    <glyph glyph-name="z" unicode="z" horiz-adv-x="426" 
d="M445 512l-7 -35l-373 -382q-43 -43 -65 -62q16 0 46 1t46 1h260l-7 -35h-397l8 37l360 368q14 14 40 39.5t34 33.5q-52 0 -333 -1l8 35h380z" />
    <glyph glyph-name="braceleft" unicode="{" horiz-adv-x="333" 
d="M-6 254l6 25q101 8 140 64q12 17 28 83l28 120q21 90 69.5 131.5t138.5 41.5l-5 -26q-39 0 -68.5 -12t-47.5 -29t-32 -48.5t-20.5 -56t-15.5 -66.5l-13 -62q-16 -74 -49.5 -111t-103.5 -43q45 -13 69.5 -36t24.5 -66q0 -27 -8 -63l-11 -53q-16 -79 -16 -113
q0 -88 111 -94l-6 -25q-63 0 -100 31.5t-37 94.5q0 35 9 79l11 55q14 70 14 95q0 39 -35.5 59t-80.5 25z" />
    <glyph glyph-name="bar" unicode="|" horiz-adv-x="222" 
d="M93 -214v1000h36v-1000h-36z" />
    <glyph glyph-name="braceright" unicode="}" horiz-adv-x="333" 
d="M315 280l-6 -25q-101 -8 -140 -64q-12 -17 -28 -83l-28 -120q-21 -90 -69.5 -131.5t-138.5 -41.5l5 26q39 0 68.5 12t47.5 29t32 48.5t20.5 56t15.5 66.5l13 62q16 74 49.5 111t103.5 43q-45 13 -69.5 36t-24.5 66q0 27 8 63l11 53q16 79 16 113q0 88 -111 94l6 25
q63 0 100 -31.5t37 -94.5q0 -35 -9 -79l-11 -55q-14 -70 -14 -95q0 -39 35.5 -59t80.5 -25z" />
    <glyph glyph-name="asciitilde" unicode="~" horiz-adv-x="600" 
d="M557 331q-9 -48 -39 -81.5t-77 -33.5q-37 0 -144 37q-15 5 -41.5 14.5t-39 13.5t-28.5 7.5t-29 3.5q-33 0 -57 -24.5t-32 -58.5h-28q10 49 39 82t77 33q16 0 35.5 -4t32 -7.5t40.5 -13t40 -13.5t36 -12.5t36.5 -12.5t30 -8t31.5 -4q34 0 57.5 24t32.5 58h27z" />
    <glyph glyph-name="sterling" unicode="&#xa3;" 
d="M324 350l-7 -26h-147q10 -44 10 -73q0 -34 -9.5 -63.5t-30.5 -57t-38.5 -45t-48.5 -45.5q51 20 90 20q30 0 111 -24q47 -14 76 -14q38 0 68.5 16t64.5 53l20 -31q-68 -77 -155 -77q-32 0 -69 12q-94 32 -134 32q-56 0 -117 -42l-18 35q83 69 117 121t34 110q0 32 -12 73
h-90l5 26h78q-32 79 -32 146q0 90 65 148t167 58q103 0 159.5 -54t56.5 -152q0 -9 -1 -17h-39v12q0 85 -45 130t-131 45q-85 0 -138 -48t-53 -125q0 -62 32 -143h161z" />
    <glyph glyph-name="currency" unicode="&#xa4;" 
d="M58 160l63 63q-49 62 -49 134t49 134l-64 64l24 23l63 -64q61 49 134 49q76 0 134 -49l64 64l23 -24l-63 -63q49 -65 49 -134q0 -70 -50 -134l64 -64l-23 -23l-64 64q-61 -50 -134 -50q-75 0 -133 50l-64 -63zM278 528q-71 0 -121 -50t-50 -121t50.5 -121t120.5 -50
q72 0 122 50t50 121t-50 121t-122 50z" />
    <glyph glyph-name="brokenbar" unicode="&#xa6;" horiz-adv-x="222" 
d="M92 -89v250h38v-250h-38zM92 411v250h38v-250h-38z" />
    <glyph glyph-name="section" unicode="&#xa7;" 
d="M494 533h-40q1 10 1 20q0 56 -34.5 88t-93.5 32q-53 0 -86 -28.5t-33 -73.5q0 -13 2.5 -25t9.5 -24t12.5 -20t17.5 -20.5t17 -17.5t20 -18t18 -16q7 -7 33.5 -30t39 -34.5t34.5 -35t32.5 -41t19.5 -41t9 -46.5q0 -58 -38.5 -98t-103.5 -50q35 -41 35 -90q0 -61 -48 -101
t-120 -40q-79 0 -127 44t-48 115q0 2 2 26h40q-2 -11 -2 -25q0 -56 38 -90t100 -34q53 0 87.5 28.5t34.5 72.5q0 10 -1.5 20.5t-6.5 20.5t-8.5 18t-12 19t-12.5 16.5t-15.5 16.5t-14.5 14.5t-15.5 15t-14.5 13.5q-101 96 -133.5 139t-32.5 91q0 57 39 98.5t98 49.5
q-27 41 -27 79q0 61 45 99t116 38q77 0 122.5 -41.5t45.5 -111.5q0 -11 -1 -22zM311 80q61 7 90 42t29 75q0 66 -87 146l-132 122q-57 -8 -86 -43t-29 -75q0 -16 6.5 -33.5t11 -27.5t22 -29.5t20.5 -22.5l24 -24z" />
    <glyph glyph-name="copyright" unicode="&#xa9;" horiz-adv-x="800" 
d="M400 729q152 0 259 -107.5t107 -258.5q0 -152 -107.5 -259t-258.5 -107q-152 0 -259 108t-107 258q0 152 107.5 259t258.5 107zM400 702q-141 0 -240 -99.5t-99 -239.5q0 -141 100 -240t239 -99q141 0 240.5 99.5t99.5 239.5q0 141 -100 240t-240 99zM575 283
q-9 -58 -56 -94t-107 -36q-88 0 -142.5 63t-54.5 151q0 87 52.5 149.5t136.5 62.5q64 0 113 -39.5t55 -100.5h-32q-9 51 -46 81t-88 30q-72 0 -113.5 -54t-41.5 -127q0 -77 44 -132t117 -55q48 0 84.5 27.5t47.5 73.5h31z" />
    <glyph glyph-name="guillemotleft" unicode="&#xab;" horiz-adv-x="389" 
d="M201 419l-10 -50l-113 -99l68 -111l-9 -45l-89 142l9 38zM331 419l-11 -51l-113 -98l68 -111l-9 -45l-89 142l9 38z" />
    <glyph glyph-name="logicalnot" unicode="&#xac;" horiz-adv-x="600" 
d="M55 343v33h489v-216h-34v183h-455z" />
    <glyph glyph-name="registered" unicode="&#xae;" horiz-adv-x="400" 
d="M239 729q76 0 129.5 -54t53.5 -129q0 -76 -54 -130t-129 -54q-76 0 -129.5 54.5t-53.5 129.5q0 76 54 129.5t129 53.5zM239 708q-67 0 -114.5 -48t-47.5 -114q0 -67 48 -115t114 -48q67 0 114.5 48t47.5 115t-48 114.5t-114 47.5zM171 644h78q30 0 51 -14.5t21 -42.5
q0 -33 -35 -46q33 -16 33 -62q0 -19 6 -29h-25q-5 10 -5 23q0 35 -13 46.5t-51 11.5h-37v-81h-23v194zM194 552h45q59 0 59 37q0 17 -12 25t-20.5 8.5t-28.5 0.5h-43v-71z" />
    <glyph glyph-name="degree" unicode="&#xb0;" horiz-adv-x="400" 
d="M244 700q59 0 100.5 -41.5t41.5 -100.5q0 -58 -42 -99.5t-100 -41.5t-99.5 41.5t-41.5 99.5q0 59 41.5 100.5t99.5 41.5zM244 667q-45 0 -76.5 -32t-31.5 -77t32 -76.5t76 -31.5q45 0 77 32t32 76q0 45 -32 77t-77 32z" />
    <glyph glyph-name="plusminus" unicode="&#xb1;" horiz-adv-x="600" 
d="M258 76v188h-227v33h227v189h35v-189h227v-33h-227v-188h-35zM31 -4v33h489v-33h-489z" />
    <glyph glyph-name="mu" unicode="&#xb5;" horiz-adv-x="519" 
d="M97 512h41l-61 -288q-15 -74 -15 -99q0 -47 34 -76t89 -29q85 0 137.5 69t72.5 163l55 260h41l-109 -512h-39l24 112q-71 -127 -195 -127q-47 0 -81 21.5t-47 61.5l-54 -253h-41z" />
    <glyph glyph-name="paragraph" unicode="&#xb6;" horiz-adv-x="600" 
d="M606 682h-56l-180 -848h-36l180 848h-136l-180 -848h-36l92 435q-81 5 -125 49.5t-44 122.5q0 127 87 199t214 72h227z" />
    <glyph glyph-name="periodcentered" unicode="&#xb7;" horiz-adv-x="278" 
d="M156 355l-22 -102h-50l22 102h50z" />
    <glyph glyph-name="guillemotright" unicode="&#xbb;" horiz-adv-x="389" 
d="M91 419l88 -140l-9 -40l-144 -125l11 51l112 99l-68 111zM220 420l89 -142l-10 -38l-144 -125l11 50l112 99l-68 111z" />
    <glyph glyph-name="divide" unicode="&#xf7;" horiz-adv-x="600" 
d="M313 368h-50v100h50v-100zM540 253h-505v33h505v-33zM313 71h-50v100h50v-100z" />
    <glyph glyph-name="florin" unicode="&#x192;" 
d="M420 428l-9 -34h-121l-102 -380q-9 -35 -14 -51t-15.5 -44t-21.5 -41.5t-28.5 -29t-41 -22t-53.5 -6.5q-23 0 -43 2l9 36q15 -2 32 -2q26 0 47 9.5t33 21t23.5 35.5t16 39t12.5 45q2 7 3 11l102 377h-108l9 34h108l30 113q23 85 56 122.5t111 37.5q21 0 52 -4l-9 -36
q-30 3 -42 3q-56 0 -81.5 -26t-46.5 -103l-29 -107h121z" />
    <glyph glyph-name="afii10023" unicode="&#x401;" 
d="M614 712l-8 -38h-422l-60 -286h394l-8 -37h-394l-66 -313h435l-8 -38h-479l151 712h465zM342 885l-21 -101h-42l21 101h42zM507 885l-20 -101h-43l22 101h41z" />
    <glyph glyph-name="afii10051" unicode="&#x402;" horiz-adv-x="704" 
d="M228 144l-30 -144h-43l143 674h-221l8 38h545l-8 -38h-281l-83 -392q79 136 220 136q90 0 132.5 -52.5t42.5 -128.5q0 -126 -96 -233.5t-221 -126.5l8 38q106 21 187.5 116.5t81.5 203.5q0 64 -37 106t-115 42q-84 0 -147 -63.5t-86 -175.5z" />
    <glyph glyph-name="afii10052" unicode="&#x403;" horiz-adv-x="500" 
d="M461 909l-132 -140h-36l117 140h51zM574 674h-392l-143 -674h-43l151 712h435z" />
    <glyph glyph-name="afii10053" unicode="&#x404;" horiz-adv-x="704" 
d="M480 388l-8 -37h-380q-5 -38 -5 -69q0 -119 63.5 -190t171.5 -71q104 0 181.5 61t107.5 166h44q-30 -120 -120.5 -192.5t-213.5 -72.5q-128 0 -203.5 80t-75.5 217q0 116 44 216t133.5 165t207.5 65t191 -64t74 -169h-43q-6 92 -64 143.5t-158 51.5q-127 0 -213.5 -85.5
t-114.5 -214.5h381z" />
    <glyph glyph-name="afii10054" unicode="&#x405;" horiz-adv-x="630" 
d="M605 507h-41v10q0 169 -204 169q-95 0 -150.5 -41.5t-55.5 -111.5q0 -21 6.5 -39t15 -31t26 -25.5t29.5 -19.5t36 -15.5t35 -12t37.5 -11t33.5 -9.5q86 -24 130.5 -61.5t44.5 -115.5q0 -94 -73.5 -150.5t-194.5 -56.5q-125 0 -194 59t-69 167q0 4 0.5 11t0.5 13h42v-19
q0 -100 59 -147.5t163 -47.5q101 0 162.5 46.5t61.5 123.5q0 59 -38 88.5t-106 49.5q-7 2 -36 10.5t-39 12t-36.5 12.5t-37.5 16t-31 18.5t-29.5 24t-20.5 28.5t-15.5 36t-4.5 43q0 88 67 140t181 52q120 0 183 -50.5t63 -146.5q0 -9 -1 -19z" />
    <glyph glyph-name="afii10055" unicode="&#x406;" horiz-adv-x="185" 
d="M193 712l-151 -712h-44l151 712h44z" />
    <glyph glyph-name="afii10056" unicode="&#x407;" horiz-adv-x="185" 
d="M192 712l-151 -712h-43l151 712h43zM318 885l-22 -101h-43l22 101h43zM143 885l-22 -101h-42l22 101h42z" />
    <glyph glyph-name="afii10057" unicode="&#x408;" horiz-adv-x="481" 
d="M497 712l-106 -501q-11 -54 -25.5 -91t-39.5 -69.5t-65 -49t-95 -16.5q-85 0 -132 41.5t-47 116.5q0 35 10 81h42q-10 -59 -10 -80q0 -59 35.5 -91t101.5 -32q45 0 77.5 14t52.5 43t31 59t20 74l107 501h43z" />
    <glyph glyph-name="afii10058" unicode="&#x409;" horiz-adv-x="1000" 
d="M954 220q0 -64 -32 -116.5t-85 -78.5q-53 -25 -175 -25h-226l143 674h-262l-110 -448q-58 -235 -188 -235q-48 0 -70 9l8 40q20 -12 70 -12q34 0 64.5 35.5t46.5 76.5t27 86l118 486h347l-67 -317h166q50 0 86.5 -7t70 -25t51 -54t17.5 -89zM911 218q0 82 -50.5 110.5
t-142.5 28.5h-163l-68 -319h173q42 0 63 1t55.5 8t57.5 22q34 22 54.5 62.5t20.5 86.5z" />
    <glyph glyph-name="afii10059" unicode="&#x40a;" horiz-adv-x="1000" 
d="M507 357h-391l-77 -357h-43l151 712h44l-67 -317h391l67 317h43l-67 -317h176q50 0 86.5 -7t70 -25t51 -54t17.5 -89q0 -64 -32 -116.5t-85 -78.5q-53 -25 -175 -25h-236zM916 218q0 82 -50.5 110.5t-142.5 28.5h-173l-68 -319h183q42 0 63 1t55.5 8t57.5 22
q34 22 54.5 62.5t20.5 86.5z" />
    <glyph glyph-name="afii10060" unicode="&#x40b;" horiz-adv-x="704" 
d="M607 148l-32 -148h-43l32 148q16 74 16 120q0 61 -31.5 91t-107.5 30q-19 0 -40.5 -3.5t-38.5 -8.5t-38 -13t-32 -13l-27.5 -12.5t-18.5 -8.5l-70 -330h-43l144 674h-221l8 38h545l-8 -38h-281l-65 -303q117 55 187 55q100 0 141 -36.5t41 -111.5q0 -54 -17 -130z" />
    <glyph glyph-name="afii10061" unicode="&#x40c;" horiz-adv-x="611" 
d="M678 712l-381 -301l273 -411h-49l-257 385l-171 -133l-52 -252h-43l149 712h43l-85 -405l511 405h62zM491 909l-132 -140h-36l117 140h51z" />
    <glyph glyph-name="afii10062" unicode="&#x40e;" 
d="M231 153l-158 559h46l141 -516l347 516h50l-425 -628q-65 -96 -139 -96q-18 0 -43.5 6.5t-33.5 15.5l9 41q25 -25 69 -25q51 0 101 74zM520 881q-12 -51 -53 -85.5t-97 -34.5q-54 0 -87.5 29t-33.5 78q0 9 1 13h33q1 -87 86 -87q37 0 70.5 24.5t47.5 62.5h33z" />
    <glyph glyph-name="afii10145" unicode="&#x40f;" horiz-adv-x="667" 
d="M284 0l-39 -185h-43l39 185h-245l151 712h43l-143 -674h446l143 674h43l-151 -712h-244z" />
    <glyph glyph-name="afii10017" unicode="&#x410;" horiz-adv-x="611" 
d="M411 712l132 -712h-45l-41 230h-342l-140 -230h-50l440 712h46zM381 672q-11 -18 -32.5 -57t-33.5 -57l-179 -292h315l-53 295q-14 74 -17 111z" />
    <glyph glyph-name="afii10018" unicode="&#x411;" horiz-adv-x="630" 
d="M526 222q0 57 -37.5 96.5t-118.5 39.5h-264l-68 -320h263q95 0 160 47t65 137zM620 712l-8 -38h-438l-59 -278h254q95 0 148 -47t53 -125q0 -107 -75 -165.5t-186 -58.5h-322l152 712h481z" />
    <glyph glyph-name="afii10019" unicode="&#x412;" horiz-adv-x="630" 
d="M148 712h226q40 0 68.5 -2t63 -11.5t56 -26t36.5 -47t15 -73.5q0 -73 -45.5 -122t-124.5 -60q62 -11 97.5 -48.5t35.5 -101.5q0 -94 -66 -157q-31 -29 -73.5 -44t-72 -17t-86.5 -2h-280zM183 674l-61 -288h219q229 0 229 164q0 34 -12 58t-28.5 36.5t-45 19.5t-51 8.5
t-56.5 1.5h-194zM114 351l-66 -315h215q97 0 146 13q55 14 89.5 61.5t34.5 108.5q0 35 -12 60t-30 38.5t-47 21.5t-53.5 10t-57.5 2h-219z" />
    <glyph glyph-name="afii10020" unicode="&#x413;" horiz-adv-x="500" 
d="M574 674h-392l-143 -674h-43l151 712h435z" />
    <glyph glyph-name="afii10021" unicode="&#x414;" horiz-adv-x="670" 
d="M504 -185l39 185h-558l-39 -185h-43l47 223h65q148 196 252 674h387l-144 -674h84l-47 -223h-43zM603 675h-301q-108 -460 -239 -637h404z" />
    <glyph glyph-name="afii10022" unicode="&#x415;" 
d="M614 712l-8 -38h-422l-60 -286h394l-8 -37h-394l-66 -313h435l-8 -38h-479l151 712h465z" />
    <glyph glyph-name="afii10024" unicode="&#x416;" horiz-adv-x="980" 
d="M355 405l-385 -405h-57l416 436l-242 276h53l329 -377l79 377h43l-79 -374l470 374h64l-358 -282l240 -430h-50l-224 403l-153 -120l-61 -283h-43l61 288z" />
    <glyph glyph-name="afii10025" unicode="&#x417;" horiz-adv-x="630" 
d="M608 563q0 -73 -48 -125.5t-124 -64.5v-2q66 -8 102.5 -45t36.5 -101q0 -75 -43.5 -131t-109.5 -82.5t-142 -26.5q-125 0 -194 59.5t-69 167.5q0 4 0.5 11t0.5 13h42v-19q0 -100 59 -148t163 -48q101 0 176 56t75 149q0 126 -187 126q-69 0 -83 -1l10 38h74
q88 0 152.5 45.5t64.5 130.5q0 62 -50.5 94t-131.5 32q-217 0 -250 -180h-43q43 218 294 218q105 0 165 -44.5t60 -121.5z" />
    <glyph glyph-name="afii10026" unicode="&#x418;" horiz-adv-x="667" 
d="M485 0l140 657h-3l-568 -657h-58l151 712h43l-139 -657h3l565 657h60l-151 -712h-43z" />
    <glyph glyph-name="afii10027" unicode="&#x419;" horiz-adv-x="667" 
d="M485 0l140 657h-3l-568 -657h-58l151 712h43l-139 -657h3l565 657h60l-151 -712h-43zM567 881q-12 -51 -53 -85.5t-97 -34.5q-54 0 -87.5 29t-33.5 78q0 9 1 13h33q1 -87 86 -87q37 0 70.5 24.5t47.5 62.5h33z" />
    <glyph glyph-name="afii10028" unicode="&#x41a;" horiz-adv-x="611" 
d="M678 712l-381 -301l273 -411h-49l-257 385l-171 -133l-52 -252h-43l149 712h43l-85 -405l511 405h62z" />
    <glyph glyph-name="afii10029" unicode="&#x41b;" horiz-adv-x="667" 
d="M683 712l-151 -712h-43l143 674h-310l-110 -448q-58 -235 -188 -235q-48 0 -70 9l8 40q20 -12 70 -12q34 0 64.5 35.5t46.5 76.5t27 86l118 486h395z" />
    <glyph glyph-name="afii10030" unicode="&#x41c;" horiz-adv-x="815" 
d="M830 712l-152 -712h-42l105 488q26 122 44 182q-14 -22 -40 -65.5t-39 -64.5l-346 -540h-43l-115 534q-11 49 -26 136q-7 -33 -19.5 -101t-19.5 -102l-99 -467h-43l152 712h59l113 -529q4 -20 12.5 -68t14.5 -73q11 22 77 126l346 544h61z" />
    <glyph glyph-name="afii10031" unicode="&#x41d;" horiz-adv-x="667" 
d="M679 712l-150 -712h-44l75 353h-445l-76 -353h-43l151 712h44l-68 -322h445l68 322h43z" />
    <glyph glyph-name="afii10032" unicode="&#x41e;" horiz-adv-x="741" 
d="M711 437q0 -87 -25 -167.5t-72 -145t-121 -103t-164 -38.5q-133 0 -211 81.5t-78 220.5q0 118 43.5 217.5t132.5 163t208 63.5q131 0 209 -79.5t78 -212.5zM419 691q-80 0 -145.5 -35t-106 -93t-62.5 -130t-22 -148q0 -121 67.5 -193t180.5 -72q63 0 118 24t94.5 64.5
t68 93.5t42.5 111.5t14 116.5q0 119 -66 190t-183 71z" />
    <glyph glyph-name="afii10033" unicode="&#x41f;" horiz-adv-x="667" 
d="M679 712l-150 -712h-44l143 674h-445l-144 -674h-43l151 712h532z" />
    <glyph glyph-name="afii10034" unicode="&#x420;" horiz-adv-x="593" 
d="M147 712h240q50 0 86.5 -7t70 -25t51 -54t17.5 -89q0 -64 -32 -116.5t-85 -78.5q-53 -25 -175 -25h-213l-67 -317h-44zM183 674l-68 -320h203q126 0 176 32q34 22 54.5 62.5t20.5 86.5q0 82 -50.5 110.5t-142.5 28.5h-193z" />
    <glyph glyph-name="afii10035" unicode="&#x421;" horiz-adv-x="704" 
d="M655 248q-30 -120 -120.5 -192.5t-213.5 -72.5q-128 0 -203.5 80t-75.5 217q0 116 44 216t133.5 165t207.5 65t191 -64t74 -169h-43q-6 92 -64 143.5t-158 51.5q-103 0 -182.5 -60.5t-118.5 -151.5t-39 -194q0 -119 63.5 -190t171.5 -71q104 0 181.5 61t107.5 166h44z
" />
    <glyph glyph-name="afii10036" unicode="&#x422;" horiz-adv-x="519" 
d="M611 712l-8 -37h-248l-142 -675h-44l143 675h-257l8 37h548z" />
    <glyph glyph-name="afii10037" unicode="&#x423;" 
d="M231 153l-158 559h46l141 -516l347 516h50l-425 -628q-65 -96 -139 -96q-18 0 -43.5 6.5t-33.5 15.5l9 41q25 -25 69 -25q51 0 101 74z" />
    <glyph glyph-name="afii10038" unicode="&#x424;" horiz-adv-x="722" 
d="M294 119l102 480h-27q-123 0 -209 -80.5t-86 -202.5q0 -91 59.5 -138.5t160.5 -58.5zM438 599l-103 -482h-1h1q3 0 9 0.5t8 0.5q134 9 219 79t85 199q0 92 -62.5 146.5t-155.5 56.5zM462 712l-16 -76q110 -5 182 -70t72 -171q0 -143 -102.5 -228t-250.5 -85h-19l-18 -82
h-42l18 82q-111 6 -183.5 68t-72.5 169q0 142 103.5 230t249.5 88h21l16 75h42z" />
    <glyph glyph-name="afii10039" unicode="&#x425;" 
d="M630 712l-320 -349l189 -363h-47l-118 226q-37 72 -53 108q-10 -10 -55 -60l-252 -274h-54l340 369l-177 343h47l114 -222q16 -31 46 -93q10 11 40.5 47.5t48.5 55.5l198 212h53z" />
    <glyph glyph-name="afii10040" unicode="&#x426;" horiz-adv-x="685" 
d="M519 -185l39 185h-561l151 712h43l-143 -674h444l143 674h43l-143 -674h74l-47 -223h-43z" />
    <glyph glyph-name="afii10041" unicode="&#x427;" horiz-adv-x="630" 
d="M447 0l75 352q-33 -13 -109 -31t-128 -18q-99 0 -146 33.5t-47 114.5q0 36 11 91l36 170h43l-35 -162q-13 -62 -13 -98q0 -59 34 -85.5t115 -26.5q58 0 134.5 18.5t113.5 33.5l68 320h42l-152 -712h-42z" />
    <glyph glyph-name="afii10042" unicode="&#x428;" horiz-adv-x="1000" 
d="M-3 0l151 712h43l-143 -674h366l143 674h43l-143 -674h367l143 674h42l-151 -712h-861z" />
    <glyph glyph-name="afii10043" unicode="&#x429;" horiz-adv-x="1024" 
d="M850 -185l39 185h-892l151 712h43l-143 -674h366l143 674h43l-143 -674h366l143 674h43l-143 -674h74l-47 -223h-43z" />
    <glyph glyph-name="afii10044" unicode="&#x42a;" horiz-adv-x="778" 
d="M312 674h-259l8 38h302l-67 -317h196q50 0 87 -7t70 -25t50.5 -54t17.5 -89q0 -64 -32 -116.5t-85 -78.5q-53 -25 -175 -25h-256zM674 218q0 82 -50.5 110.5t-142.5 28.5h-193l-68 -319h203q42 0 63 1t55.5 8t57.5 22q34 22 54.5 62.5t20.5 86.5z" />
    <glyph glyph-name="afii10045" unicode="&#x42b;" horiz-adv-x="809" 
d="M626 0l152 712h43l-152 -712h-43zM546 220q0 -64 -32 -116.5t-85 -78.5q-53 -25 -175 -25h-257l152 712h43l-67 -317h196q50 0 86.5 -7t70 -25t51 -54t17.5 -89zM503 218q0 82 -50.5 110.5t-142.5 28.5h-193l-68 -319h203q42 0 63 1t55.5 8t57.5 22q34 22 54.5 62.5
t20.5 86.5z" />
    <glyph glyph-name="afii10046" unicode="&#x42c;" horiz-adv-x="593" 
d="M546 220q0 -64 -32 -116.5t-85 -78.5q-53 -25 -175 -25h-257l151 712h43l-67 -317h197q50 0 86.5 -7t70 -25t51 -54t17.5 -89zM503 218q0 82 -50.5 110.5t-142.5 28.5h-193l-68 -319h203q42 0 63 1t55.5 8t57.5 22q34 22 54.5 62.5t20.5 86.5z" />
    <glyph glyph-name="afii10047" unicode="&#x42d;" horiz-adv-x="704" 
d="M292 22q128 0 218.5 91t112.5 240h-379l8 38h375q1 10 1 31q0 122 -65.5 195t-178.5 73q-97 0 -172 -51.5t-107 -140.5h-42q26 104 121 167.5t203 63.5q131 0 207.5 -82t76.5 -220q0 -31 -5 -73q-23 -167 -127 -268.5t-251 -101.5q-121 0 -194.5 72.5t-73.5 191.5h42
q5 -102 64.5 -164t165.5 -62z" />
    <glyph glyph-name="afii10048" unicode="&#x42e;" horiz-adv-x="980" 
d="M950 437q0 -87 -25 -167.5t-72 -145t-121 -103t-164 -38.5q-133 0 -211 81.5t-78 220.5q0 39 4 68h-168l-76 -353h-43l151 712h44l-68 -322h166q28 147 126 243t248 96q131 0 209 -79.5t78 -212.5zM658 691q-80 0 -145.5 -35t-106 -93t-62.5 -130t-22 -148
q0 -121 67.5 -193t180.5 -72q63 0 118 24t94.5 64.5t68 93.5t42.5 111.5t14 116.5q0 119 -66 190t-183 71z" />
    <glyph glyph-name="afii10049" unicode="&#x42f;" horiz-adv-x="630" 
d="M591 675h-258q-91 0 -149.5 -45.5t-58.5 -133.5q0 -63 48 -97.5t127 -34.5h225zM448 0l70 327h-250l-306 -327h-54l313 333q-57 9 -98.5 55t-41.5 108q0 107 74 161.5t186 54.5h301l-151 -712h-43z" />
    <glyph glyph-name="afii10065" unicode="&#x430;" horiz-adv-x="500" 
d="M58 365q23 84 72.5 122.5t138.5 38.5q80 0 124 -32t44 -90q0 -28 -14 -88l-36 -157q-17 -70 -17 -97q0 -32 28 -32q10 0 33 5l-6 -33q-26 -6 -39 -6q-52 0 -52 55q0 18 7 46q-68 -112 -200 -112q-73 0 -114.5 37t-41.5 101q0 41 20 75t55 54q30 17 69 24.5t124 12.5
q104 7 125 31q19 22 19 75q0 95 -128 95q-72 0 -112.5 -30t-58.5 -95h-40zM379 288q-17 -16 -47 -22q-20 -4 -109 -9.5t-132 -25.5q-30 -13 -48 -42t-18 -64q0 -50 33 -78.5t91 -28.5q59 0 108 30.5t76 83.5q17 35 34 105z" />
    <glyph glyph-name="afii10066" unicode="&#x431;" horiz-adv-x="537" 
d="M517 729q-7 -32 -37 -47t-92 -23l-90 -11q-49 -6 -89.5 -36t-67 -76t-43 -91.5t-27.5 -97.5h3q36 74 94.5 118t128.5 44q90 0 140 -52t50 -143q0 -82 -28.5 -155t-90 -123.5t-143.5 -50.5q-97 0 -146 59t-49 165q0 55 8 112.5t27.5 120.5t49 113t77 85.5t105.5 42.5
l99 12q3 0 11 1t11.5 1.5t10.5 2t10.5 2t9 2t8.5 3t7.5 4t6.5 5t4.5 6t3.5 7.5h38zM447 316q0 73 -40.5 115.5t-112.5 42.5q-103 0 -163.5 -86.5t-60.5 -198.5q0 -81 41 -125.5t115 -44.5q71 0 123 47.5t75 113t23 136.5z" />
    <glyph glyph-name="afii10067" unicode="&#x432;" horiz-adv-x="500" 
d="M98 512h191q37 0 62 -3.5t53 -14t42.5 -35t14.5 -62.5q0 -53 -32 -86t-89 -41q44 -8 69.5 -37t25.5 -75q0 -67 -48 -113q-22 -21 -52.5 -31.5t-52 -12t-62.5 -1.5h-230zM132 478l-40 -191h177q152 0 152 108q0 28 -10.5 45.5t-31.5 25.5t-39.5 10t-46.5 2h-161zM83 253
l-45 -218h170q68 0 101 9q38 10 62 43t24 75q0 30 -11.5 49t-34 27.5t-43 11.5t-49.5 3h-174z" />
    <glyph glyph-name="afii10068" unicode="&#x433;" horiz-adv-x="400" 
d="M135 477l-101 -477h-40l109 512h340l-8 -35h-300z" />
    <glyph glyph-name="afii10069" unicode="&#x434;" horiz-adv-x="537" 
d="M383 -161l34 161h-438l-34 -161h-40l42 196h60q52 75 96 196t68 237l9 44h316l-101 -477h70l-42 -196h-40zM449 477h-236l-9 -39q-26 -109 -68 -223.5t-87 -179.5h306z" />
    <glyph glyph-name="afii10070" unicode="&#x435;" horiz-adv-x="519" 
d="M445 168q-25 -88 -84.5 -135.5t-145.5 -47.5q-95 0 -148 57.5t-53 161.5q0 138 76.5 230.5t190.5 92.5q90 0 141 -54.5t51 -151.5q0 -28 -6 -68h-409q-4 -21 -4 -49q0 -87 43.5 -136.5t120.5 -49.5q65 0 114 39.5t72 110.5h41zM63 287h368q3 24 3 35q0 81 -41 126
t-115 45q-79 0 -137 -55.5t-78 -150.5z" />
    <glyph glyph-name="afii10072" unicode="&#x436;" horiz-adv-x="722" 
d="M663 0h-46l-169 270l29 29zM748 512l-394 -334l-38 -178h-40l38 178l-247 334h50l208 -282l60 282h40l-60 -282l325 282h58zM248 270l-261 -270h-55l295 302z" />
    <glyph glyph-name="afii10073" unicode="&#x437;" horiz-adv-x="473" 
d="M297 273q49 -5 79 -37t30 -77q0 -79 -67 -126.5t-151 -47.5q-88 0 -139 41t-51 114q0 9 2 33h40q-2 -22 -2 -31q0 -123 150 -123q65 0 121 39.5t56 101.5q0 95 -151 95h-49l8 34h36q30 0 59 5.5t57 17.5t45.5 36t17.5 57q0 42 -36.5 65t-91.5 23q-150 0 -179 -130h-41
q21 88 76.5 126t146.5 38q76 0 120.5 -31.5t44.5 -90.5q0 -53 -37.5 -89t-93.5 -43z" />
    <glyph glyph-name="afii10074" unicode="&#x438;" horiz-adv-x="519" 
d="M349 0l97 460h-1l-402 -460h-51l108 512h40l-98 -462h1l402 462h52l-108 -512h-40z" />
    <glyph glyph-name="afii10075" unicode="&#x439;" horiz-adv-x="519" 
d="M349 0l97 460h-1l-402 -460h-51l108 512h40l-98 -462h1l402 462h52l-108 -512h-40zM462 712q-12 -51 -53 -85.5t-97 -34.5q-53 0 -87 29t-34 78q0 9 1 13h33q1 -87 86 -87q37 0 70.5 24.5t47.5 62.5h33z" />
    <glyph glyph-name="afii10076" unicode="&#x43a;" horiz-adv-x="463" 
d="M404 0h-44l-169 272l-127 -101l-36 -171h-40l109 512h40l-62 -288l360 288h58l-272 -216z" />
    <glyph glyph-name="afii10077" unicode="&#x43b;" horiz-adv-x="537" 
d="M516 512l-109 -512h-40l101 477h-227l-68 -274q-29 -115 -69.5 -164t-95.5 -49q-30 0 -54 10l7 36q22 -11 54 -11q75 0 121 182l75 305h305z" />
    <glyph glyph-name="afii10078" unicode="&#x43c;" horiz-adv-x="630" 
d="M132 476l-101 -476h-40l109 512h62l92 -465l289 465h66l-109 -512h-40l101 476h-2l-292 -476h-42l-91 476h-2z" />
    <glyph glyph-name="afii10079" unicode="&#x43d;" horiz-adv-x="519" 
d="M349 0l54 255h-319l-54 -255h-40l108 512h40l-47 -223h319l47 223h40l-108 -512h-40z" />
    <glyph glyph-name="afii10080" unicode="&#x43e;" horiz-adv-x="537" 
d="M490 323q0 -61 -17.5 -120t-50 -108.5t-85.5 -79.5t-118 -30q-97 0 -150.5 56t-53.5 157q0 132 74 230.5t202 98.5q94 0 146.5 -54.5t52.5 -149.5zM288 492q-73 0 -128 -45.5t-80 -111t-25 -137.5q0 -85 43.5 -132t121.5 -47q57 0 102.5 28.5t72.5 74t41 98t14 105.5
q0 77 -43 122t-119 45z" />
    <glyph glyph-name="afii10081" unicode="&#x43f;" horiz-adv-x="519" 
d="M349 0l102 478h-319l-102 -478h-40l109 512h399l-109 -512h-40z" />
    <glyph glyph-name="afii10082" unicode="&#x440;" 
d="M133 512l-25 -119q67 134 206 134q85 0 134.5 -56.5t49.5 -153.5q0 -80 -29.5 -154t-92 -126t-144.5 -52q-75 0 -122 42.5t-54 115.5l-68 -328h-40l148 697h37zM303 493q-55 0 -102.5 -31t-75.5 -81q-51 -94 -51 -193q0 -78 42.5 -124t114.5 -46q53 0 97.5 28.5t72 73.5
t42.5 97t15 101q0 79 -39 127t-116 48z" />
    <glyph glyph-name="afii10083" unicode="&#x441;" horiz-adv-x="519" 
d="M453 164q-27 -82 -88 -130t-147 -48q-93 0 -144 55.5t-51 156.5q0 84 31 157.5t96 122.5t151 49q84 0 133 -45t49 -122v-3h-40q0 63 -38.5 99t-105.5 36q-109 0 -172.5 -88.5t-63.5 -203.5q0 -86 41 -133t117 -47q135 0 191 144h41z" />
    <glyph glyph-name="afii10084" unicode="&#x442;" horiz-adv-x="444" 
d="M261 477l-101 -477h-40l101 477h-194l7 35h428l-7 -35h-194z" />
    <glyph glyph-name="afii10085" unicode="&#x443;" horiz-adv-x="426" 
d="M459 512l-289 -507q-49 -88 -79 -128q-24 -34 -51.5 -48t-68.5 -14q-10 0 -39 3l8 35q19 -1 33 -1q42 0 66 21t50 66l36 61l-99 512h42l63 -323q12 -58 24 -143q28 58 71 133l188 333h45z" />
    <glyph glyph-name="afii10086" unicode="&#x444;" horiz-adv-x="766" 
d="M325 152l44 207q2 18 2 26q0 45 -29 76t-68 31q-54 0 -98 -31t-69.5 -79.5t-39.5 -102t-14 -103.5q0 -70 28.5 -111.5t88.5 -41.5q46 0 95 38.5t60 90.5zM682 347q0 145 -122 145q-46 0 -93 -40t-58 -93l-44 -207q-3 -14 -3 -25q0 -44 29.5 -74t69.5 -30q53 0 96.5 32.5
t70 82.5t40.5 104.5t14 104.5zM460 -12q-41 0 -70.5 21t-43.5 54l-53 -248h-40l53 248q-64 -75 -142 -75q-74 0 -114 52t-40 134q0 57 17 117.5t48.5 113.5t83 87t112.5 34q41 0 71.5 -22.5t44.5 -55.5l57 264h40l-57 -264q28 33 68.5 55.5t81.5 22.5q73 0 110 -48.5
t37 -128.5q0 -79 -29 -160t-91.5 -141t-143.5 -60z" />
    <glyph glyph-name="afii10087" unicode="&#x445;" horiz-adv-x="426" 
d="M451 512l-228 -247l143 -265h-47l-125 239l-219 -239h-50l251 269l-129 243h46l112 -218l197 218h49z" />
    <glyph glyph-name="afii10088" unicode="&#x446;" horiz-adv-x="537" 
d="M378 -161l35 161h-423l109 512h40l-102 -477h318l102 477h40l-102 -477h65l-42 -196h-40z" />
    <glyph glyph-name="afii10089" unicode="&#x447;" horiz-adv-x="489" 
d="M318 0l53 249q-107 -39 -175 -39q-141 0 -141 116q0 27 7 58l27 128h40l-30 -141q-5 -21 -5 -44q0 -44 26.5 -62.5t76.5 -18.5q41 0 97 14.5t85 26.5l48 225h40l-109 -512h-40z" />
    <glyph glyph-name="afii10090" unicode="&#x448;" horiz-adv-x="768" 
d="M-10 0l108 512h40l-101 -477h264l101 477h40l-101 -477h264l101 477h40l-108 -512h-648z" />
    <glyph glyph-name="afii10091" unicode="&#x449;" horiz-adv-x="789" 
d="M629 -161l35 161h-674l109 512h40l-102 -477h265l102 477h40l-102 -477h264l102 477h40l-102 -477h65l-42 -196h-40z" />
    <glyph glyph-name="afii10092" unicode="&#x44a;" horiz-adv-x="611" 
d="M547 168q0 -49 -24 -89t-65 -60q-41 -19 -133 -19h-221l101 477h-178l7 35h218l-44 -209h169q79 0 124.5 -28.5t45.5 -106.5zM507 166q0 60 -36.5 80.5t-103.5 20.5h-167l-50 -232h175q91 0 128 23q24 16 39 45.5t15 62.5z" />
    <glyph glyph-name="afii10093" unicode="&#x44b;" horiz-adv-x="630" 
d="M414 168q0 -49 -24 -89t-65 -60q-41 -19 -133 -19h-201l109 512h39l-44 -209h149q79 0 124.5 -28.5t45.5 -106.5zM374 166q0 60 -36.5 80.5t-103.5 20.5h-147l-50 -232h155q91 0 128 23q24 16 39 45.5t15 62.5zM461 0l109 512h40l-109 -512h-40z" />
    <glyph glyph-name="afii10094" unicode="&#x44c;" horiz-adv-x="489" 
d="M434 168q0 -49 -24 -89t-65 -60q-41 -19 -133 -19h-221l109 512h39l-44 -209h169q79 0 124.5 -28.5t45.5 -106.5zM394 166q0 60 -36.5 80.5t-103.5 20.5h-167l-50 -232h175q91 0 128 23q24 16 39 45.5t15 62.5z" />
    <glyph glyph-name="afii10095" unicode="&#x44d;" horiz-adv-x="519" 
d="M469 315q0 -84 -31 -157.5t-96 -122.5t-151 -49q-84 0 -133 45t-49 122v3h40q0 -63 38.5 -99t105.5 -36q94 0 154.5 66.5t76.5 164.5h-272l7 35h269q1 9 1 26q0 86 -41 133t-117 47q-128 0 -186 -129h-41q29 76 88.5 119.5t141.5 43.5q93 0 144 -55.5t51 -156.5z" />
    <glyph glyph-name="afii10096" unicode="&#x44e;" horiz-adv-x="730" 
d="M683 323q0 -61 -17.5 -120t-50 -108.5t-85.5 -79.5t-118 -30q-97 0 -150.5 56t-53.5 157q0 32 4 57h-128l-54 -255h-40l108 512h40l-47 -223h127q23 103 92 170.5t174 67.5q94 0 146.5 -54.5t52.5 -149.5zM481 492q-73 0 -128 -45.5t-80 -111t-25 -137.5q0 -85 43.5 -132
t121.5 -47q57 0 102.5 28.5t72.5 74t41 98t14 105.5q0 77 -43 122t-119 45z" />
    <glyph glyph-name="afii10097" unicode="&#x44f;" horiz-adv-x="500" 
d="M478 511l-109 -511h-39l46 221h-181l-213 -221h-50l225 233q-39 7 -67 41t-28 79q0 76 53.5 117t133.5 41h229zM431 478h-184q-63 0 -104 -33t-41 -95q0 -44 34 -69.5t88 -25.5h160z" />
    <glyph glyph-name="afii10071" unicode="&#x451;" horiz-adv-x="519" 
d="M445 168q-25 -88 -84.5 -135.5t-145.5 -47.5q-95 0 -148 57.5t-53 161.5q0 138 76.5 230.5t190.5 92.5q90 0 141 -54.5t51 -151.5q0 -28 -6 -68h-409q-4 -21 -4 -49q0 -87 43.5 -136.5t120.5 -49.5q65 0 114 39.5t72 110.5h41zM63 287h368q3 24 3 35q0 81 -41 126
t-115 45q-79 0 -137 -55.5t-78 -150.5zM241 710l-21 -101h-42l21 101h42zM406 710l-20 -101h-43l22 101h41z" />
    <glyph glyph-name="afii10099" unicode="&#x452;" horiz-adv-x="519" 
d="M422 108q-24 -113 -101 -192.5t-208 -99.5l7 33q96 15 168.5 86t90.5 158q1 5 8.5 39.5t13 65t5.5 48.5q0 106 -118 106q-85 0 -148.5 -59t-83.5 -155l-29 -138h-40l101 477h-63l8 35h63l42 200h39l-42 -200h263l-8 -35h-263l-45 -213h2q31 56 90.5 88.5t121.5 32.5
q83 0 116.5 -39t33.5 -91q0 -37 -24 -147z" />
    <glyph glyph-name="afii10100" unicode="&#x453;" horiz-adv-x="400" 
d="M132 477l-101 -477h-40l108 512h340l-7 -35h-300zM406 738l-153 -142h-39l137 142h55z" />
    <glyph glyph-name="afii10101" unicode="&#x454;" horiz-adv-x="519" 
d="M483 364h-40q-2 60 -40.5 94t-103.5 34q-109 0 -172.5 -88.5t-63.5 -203.5q0 -86 41 -133t117 -47q135 0 191 144h41q-27 -82 -88 -130t-147 -48q-93 0 -144 55.5t-51 156.5q0 84 31 157.5t96 122.5t151 49q83 0 131.5 -43.5t50.5 -119.5zM349 289l-7 -34h-285l8 34h284z
" />
    <glyph glyph-name="afii10102" unicode="&#x455;" horiz-adv-x="463" 
d="M421 363h-40v15q0 57 -34 84t-106 27q-64 0 -100.5 -26t-36.5 -72q0 -15 4 -28t14 -23t18 -17t24.5 -14.5t24.5 -11t27.5 -10t24.5 -8.5q33 -12 53 -21t44.5 -26t36 -40.5t11.5 -54.5q0 -76 -60 -114t-139 -38q-91 0 -141 42t-50 118q0 2 2 26h40q-2 -24 -2 -25
q0 -61 40 -94t114 -33q67 0 110.5 31.5t43.5 81.5q0 14 -4 26.5t-9.5 21.5t-16.5 18t-18.5 14t-23 12.5t-22.5 10t-25 9t-22 8.5q-29 11 -41.5 16t-35.5 17.5t-33.5 24.5t-19.5 32t-9 45q0 63 49.5 101t131.5 38q177 0 177 -146q0 -9 -1 -17z" />
    <glyph glyph-name="afii10103" unicode="&#x456;" horiz-adv-x="167" 
d="M141 512l-109 -512h-40l109 512h40zM184 712l-21 -101h-41l21 101h41z" />
    <glyph glyph-name="afii10104" unicode="&#x457;" horiz-adv-x="167" 
d="M268 712l-22 -101h-43l22 101h43zM93 712l-22 -101h-42l22 101h42zM141 512l-109 -512h-40l109 512h40z" />
    <glyph glyph-name="afii10105" unicode="&#x458;" horiz-adv-x="167" 
d="M141 512l-120 -565q-7 -32 -13.5 -51.5t-19.5 -41t-35.5 -31.5t-54.5 -10q-20 0 -42 3l7 36q15 -3 32 -3q20 0 34.5 6.5t22 12.5t14.5 24.5t8.5 25.5t7.5 33l118 561h41zM183 712l-21 -101h-41l21 101h41z" />
    <glyph glyph-name="afii10106" unicode="&#x459;" horiz-adv-x="778" 
d="M723 168q0 -49 -24.5 -89.5t-65.5 -59.5t-133 -19h-167l100 477h-192l-68 -274q-29 -115 -69.5 -164t-95.5 -49q-30 0 -54 10l7 36q22 -11 54 -11q75 0 121 182l75 305h270l-44 -210h114q80 0 126 -28t46 -106zM682 166q0 60 -36.5 80.5t-103.5 20.5h-113l-49 -232h120
q92 0 128 23q25 16 39.5 45.5t14.5 62.5z" />
    <glyph glyph-name="afii10107" unicode="&#x45a;" horiz-adv-x="778" 
d="M370 267h-283l-57 -267h-40l108 512h40l-44 -210h283l44 210h40l-44 -210h133q38 0 66 -5.5t53 -19t38.5 -41t13.5 -68.5q0 -49 -24 -89t-65 -60q-42 -19 -134 -19h-184zM681 166q0 60 -36.5 80.5t-103.5 20.5h-131l-50 -232h139q91 0 127 23q25 16 40 45.5t15 62.5z" />
    <glyph glyph-name="afii10108" unicode="&#x45b;" horiz-adv-x="519" 
d="M28 0h-1h-40l102 477h-63l7 35h63l43 200h39l-43 -200h263l-7 -35h-263l-46 -215q80 123 206 123q67 0 109 -36t42 -95q0 -31 -15 -100l-33 -154h-40l32 155q14 67 14 95q0 46 -32.5 73t-87.5 27q-64 0 -111.5 -34t-72 -81.5t-38.5 -110.5z" />
    <glyph glyph-name="afii10109" unicode="&#x45c;" horiz-adv-x="463" 
d="M404 0h-44l-169 272l-127 -101l-36 -171h-40l109 512h40l-62 -288l360 288h58l-272 -216zM415 738l-153 -142h-39l137 142h55z" />
    <glyph glyph-name="afii10110" unicode="&#x45e;" horiz-adv-x="426" 
d="M459 512l-289 -507q-49 -88 -79 -128q-24 -34 -51.5 -48t-68.5 -14q-10 0 -39 3l8 35q19 -1 33 -1q42 0 66 21t50 66l36 61l-99 512h42l63 -323q12 -58 24 -143q28 58 71 133l188 333h45zM401 712q-12 -51 -53 -85.5t-97 -34.5q-53 0 -87 29t-34 78q0 9 1 13h33
q1 -87 86 -87q37 0 70.5 24.5t47.5 62.5h33z" />
    <glyph glyph-name="afii10193" unicode="&#x45f;" horiz-adv-x="519" 
d="M209 0l-35 -161h-40l35 161h-180l109 512h40l-102 -477h319l102 477h40l-109 -512h-179z" />
    <glyph glyph-name="afii10050" unicode="&#x490;" horiz-adv-x="500" 
d="M182 674l-144 -674h-43l152 712h391l36 170h43l-44 -208h-391z" />
    <glyph glyph-name="afii10098" unicode="&#x491;" horiz-adv-x="400" 
d="M474 673l-42 -196h-300l-101 -477h-40l109 512h300l34 161h40z" />
    <glyph glyph-name="endash" unicode="&#x2013;" horiz-adv-x="500" 
d="M504 291l-8 -38h-500l8 38h500z" />
    <glyph glyph-name="emdash" unicode="&#x2014;" horiz-adv-x="1000" 
d="M1004 291l-8 -38h-1000l8 38h1000z" />
    <glyph glyph-name="quoteleft" unicode="&#x2018;" horiz-adv-x="204" 
d="M227 726l-7 -33q-20 -7 -32.5 -24t-17 -31t-10.5 -40h18l-22 -102h-49l21 100q12 55 32 85t67 45z" />
    <glyph glyph-name="quoteright" unicode="&#x2019;" horiz-adv-x="204" 
d="M210 712l-21 -100q-12 -55 -32 -85t-67 -45l7 33q20 7 32.5 24t17 31t10.5 40h-18l22 102h49z" />
    <glyph glyph-name="quotesinglbase" unicode="&#x201a;" horiz-adv-x="204" 
d="M81 102l-21 -100q-12 -55 -32 -85t-67 -45l7 33q20 7 32.5 24t17 31t10.5 40h-18l22 102h49z" />
    <glyph glyph-name="quotedblleft" unicode="&#x201c;" horiz-adv-x="315" 
d="M336 726l-7 -33q-20 -7 -32.5 -24t-17 -31t-10.5 -40h18l-22 -102h-49l21 100q12 55 32 85t67 45zM210 726l-7 -33q-20 -7 -32.5 -24t-17 -31t-10.5 -40h18l-22 -102h-49l21 100q12 55 32 85t67 45z" />
    <glyph glyph-name="quotedblright" unicode="&#x201d;" horiz-adv-x="315" 
d="M322 712l-21 -100q-12 -55 -32 -85t-67 -45l7 33q20 7 32.5 24t17 31t10.5 40h-18l22 102h49zM196 712l-21 -100q-12 -55 -32 -85t-67 -45l7 33q20 7 32.5 24t17 31t10.5 40h-18l22 102h49z" />
    <glyph glyph-name="quotedblbase" unicode="&#x201e;" horiz-adv-x="315" 
d="M81 102l-21 -100q-12 -55 -32 -85t-67 -45l7 33q20 7 32.5 24t17 31t10.5 40h-18l22 102h49zM207 102l-21 -100q-12 -55 -32 -85t-67 -45l7 33q20 7 32.5 24t17 31t10.5 40h-18l22 102h49z" />
    <glyph glyph-name="dagger" unicode="&#x2020;" 
d="M376 712l-49 -233h205l-8 -36h-205l-125 -589h-39l124 589h-205l8 36h205l49 233h40z" />
    <glyph glyph-name="daggerdbl" unicode="&#x2021;" 
d="M375 712l-42 -198h205l-7 -36h-205l-83 -391h205l-7 -34h-205l-42 -198h-39l42 198h-205l8 34h205l82 391h-204l7 36h205l42 198h38z" />
    <glyph glyph-name="bullet" unicode="&#x2022;" horiz-adv-x="500" 
d="M250 534q74 0 126 -52.5t52 -125.5q0 -74 -52.5 -126t-125.5 -52q-74 0 -126 52.5t-52 125.5q0 74 52.5 126t125.5 52z" />
    <glyph glyph-name="ellipsis" unicode="&#x2026;" horiz-adv-x="1000" 
d="M148 102l-22 -102h-50l22 102h50zM482 102l-22 -102h-50l22 102h50zM815 102l-22 -102h-50l22 102h50z" />
    <glyph glyph-name="perthousand" unicode="&#x2030;" horiz-adv-x="1056" 
d="M639 723l-546 -755h-38l545 755h39zM357 573q0 -86 -49.5 -145t-122.5 -59q-61 0 -95.5 35.5t-34.5 97.5q0 83 48.5 143t129.5 60q60 0 92 -35.5t32 -96.5zM228 675q-60 0 -99 -49.5t-39 -125.5q0 -48 25.5 -75t71.5 -27q63 0 99 55.5t36 122.5q0 99 -94 99zM643 193
q0 -86 -49.5 -145t-122.5 -59q-61 0 -95.5 35.5t-34.5 97.5q0 83 48.5 143t129.5 60q60 0 92 -36.5t32 -95.5zM514 295q-60 0 -99 -49.5t-39 -125.5q0 -48 25.5 -75t71.5 -27q63 0 99 55.5t36 122.5q0 43 -24.5 71t-69.5 28zM1000 193q0 -86 -49.5 -145t-122.5 -59
q-61 0 -95.5 35.5t-34.5 97.5q0 83 48.5 143t129.5 60q60 0 92 -35.5t32 -96.5zM871 295q-60 0 -99 -49.5t-39 -125.5q0 -48 25.5 -75t71.5 -27q63 0 99 55.5t36 122.5q0 99 -94 99z" />
    <glyph glyph-name="guilsinglleft" unicode="&#x2039;" horiz-adv-x="259" 
d="M197 419l-11 -51l-113 -98l68 -111l-9 -45l-89 141l9 39z" />
    <glyph glyph-name="guilsinglright" unicode="&#x203a;" horiz-adv-x="259" 
d="M96 420l89 -142l-9 -38l-145 -125l11 51l113 98l-69 111z" />
    <glyph glyph-name="afii61352" unicode="&#x2116;" horiz-adv-x="950" 
d="M743 163q52 0 82.5 38.5t30.5 90.5q0 38 -21 62.5t-62 24.5q-52 0 -82.5 -38.5t-30.5 -90.5q0 -38 21 -62.5t62 -24.5zM738 126q-56 0 -87 34.5t-31 87.5q0 70 43 119t115 49q56 0 87 -34t31 -87q0 -72 -43 -120.5t-115 -48.5zM846 0h-274l9 43h274zM1 0l146 685h53
l278 -626h2l133 626h42l-146 -685h-50l-280 631h-2l-134 -631h-42z" />
    <glyph glyph-name="trademark" unicode="&#x2122;" horiz-adv-x="990" 
d="M280 356v328h-129v28h288v-28h-129v-328h-30zM510 356v356h46l123 -315l123 315h44v-356h-27v323l-127 -323h-27l-127 323v-323h-28z" />
    <glyph glyph-name="Delta" unicode="&#x2206;" horiz-adv-x="639" 
d="M414 712l139 -712h-612l438 712h35zM2 35h504l-119 627z" />
    <glyph glyph-name="radical" unicode="&#x221a;" horiz-adv-x="600" 
d="M506 785l-215 -999h-32l-178 366l-44 -21l-13 27l73 36l173 -359l203 950h33z" />
    <glyph glyph-name="infinity" unicode="&#x221e;" horiz-adv-x="722" 
d="M349 291q4 3 19.5 17.5t21.5 19.5t21 18t23.5 18.5t23.5 14.5t26 12.5t25.5 7t27.5 3.5q56 0 91 -37t35 -93q0 -58 -34.5 -95.5t-91.5 -37.5q-14 0 -28.5 3t-25.5 7t-25.5 12.5t-23 13.5t-23.5 17.5t-20.5 17.5t-21.5 19.5t-20 18.5q-9 -8 -32.5 -29t-36 -30.5t-33.5 -23
t-42 -19.5t-44 -6q-57 0 -91.5 36.5t-34.5 93.5q0 55 34.5 93.5t88.5 38.5q11 0 22.5 -2t20.5 -4.5t21.5 -9t19.5 -10t20.5 -13t18.5 -13t18.5 -15.5t16.5 -14.5t17.5 -15.5t15.5 -14zM371 269q7 -6 28 -24.5t32.5 -27.5t31 -21.5t37.5 -18t37 -5.5q43 0 68 27t25 72
q0 42 -24.5 70t-66.5 28q-21 0 -43 -8.5t-49.5 -29.5t-37 -28.5t-38.5 -33.5zM326 269q-2 2 -19.5 17.5t-23.5 20t-22.5 17.5t-26 18.5t-24.5 13t-28 10.5t-26 3q-39 0 -63.5 -29t-24.5 -69q0 -44 24.5 -71t68.5 -27q29 0 62.5 18t52.5 33.5t50 44.5z" />
    <glyph glyph-name="approxequal" unicode="&#x2248;" horiz-adv-x="600" 
d="M536 402q-9 -48 -39 -81.5t-77 -33.5q-37 0 -144 37q-15 5 -41.5 14.5t-39 13.5t-28.5 7.5t-29 3.5q-33 0 -57 -24.5t-32 -58.5h-28q10 49 39 82t77 33q16 0 35.5 -4t32 -7.5t40.5 -13t40 -13.5t36 -12.5t36.5 -12.5t30 -8t31.5 -4q34 0 57.5 24t32.5 58h27zM536 261
q-9 -48 -39 -81.5t-77 -33.5q-37 0 -144 37q-15 5 -41.5 14.5t-39 13.5t-28.5 7.5t-29 3.5q-33 0 -57 -24.5t-32 -58.5h-28q10 49 39 82t77 33q16 0 35.5 -4t32 -7.5t40.5 -13t40 -13.5t36 -12.5t36.5 -12.5t30 -8t31.5 -4q34 0 57.5 24t32.5 58h27z" />
    <glyph glyph-name="notequal" unicode="&#x2260;" horiz-adv-x="600" 
d="M236 194l80 150h-264v33h282l76 143l29 -15l-68 -128h170v-33h-188l-81 -150h269v-33h-286l-75 -141l-29 15l67 126h-166v33h184z" />
    <glyph glyph-name="lessequal" unicode="&#x2264;" horiz-adv-x="600" 
d="M33 260v36l489 200v-37l-445 -181l445 -180v-37zM33 19h489v-33h-489v33z" />
    <glyph glyph-name="greaterequal" unicode="&#x2265;" horiz-adv-x="600" 
d="M541 260l-489 -199v37l446 180l-446 181v37l489 -200v-36zM541 19v-33h-489v33h489z" />
    <glyph glyph-name="hyphenminus" unicode="&#xe000;" horiz-adv-x="352" 
d="M273 290l-8 -39h-216l8 39h216z" />
    <glyph glyph-name="nbspace" unicode="&#xe001;" horiz-adv-x="278" 
 />
    </font>
</defs>
</svg>
